Ссылка на приватное зеркало нашего сайта всего за 1$. Внимание количество ограничено!!!

2 сезон

iTunes

1 сезон

1

2 сезон

2 сезон

iTunes

1 сезон

RePack

30

Ultimate

ВАЖНО

ИГРА 18+

pack

RePack

MK11
pack

Забери бонус

RePack

jed

!!Акция!!

Alien_Rage

RePack

fifa19

RePack

Assassins Creed: Odyssey

RePack

NEED FOR SPEED™ PAYBACK

4 сезон

9 сезон

Бесстыжие 9 сезон

Все сериалы

все сериалы на PB.wtf

RePack

FAR CRY 5
  

Призраки дома на холме / The Haunting of Hill House / Сезон: 1 / Серии: 1-10 из 10 (Майк Флэнеган) [2018, драма, ужасы, WEB-DL 720p] MVO [АРК-ТВ Studio & VSI International] pb.wtf

Призраки дома на холме через торрент pb.wtf

Раздают: 7 [ 0 KB/s ] Качают: 2 [ 0 KB/s ]
Размер: 7.25 GB | Добавлен: 2 года 1 мес. назад | Торрент скачан:472 раза
Скачать  

13-10-2018 07:40 Призраки дома на холме Скачать торрент  

Призраки дома на холме / The Haunting of Hill House
Год выпуска: 2018
Страна: США
Жанр: драма, ужасы
Продолжительность: ~00:55:00 серия
Перевод: Профессиональный (многоголосый) | АРК-ТВ Studio & VSI International
Субтитры: Russian (Full), English (SDH)

Режиссер: Майк Флэнеган

rating


В ролях
:

Маккенна Грэйс, Карла Гуджино, Микил Хаусмен, Тимоти Хаттон, Генри Томас, Лулу Уилсон, Оливер Джексон-Коэн, Элизабет Ризер, Кейт Сигел, Саманта Слойан, Роберт Лонгстрит, Джеймс Лэфферти, Катрин Паркер, Элизабет Бечка, Джордана Кристи, Энтони Руйвивар, Кэти Карпентер, Анна Энгер, Джеймс Флэнеган, Эрианн Мартин, Дэвид Моретти


Описание
:

В провинциальном городке, в котором живет главный герой, есть старинный особняк, расположенный недалеко от лесного массива. Раньше там жили обеспеченные люди, которые хотели оградить себя от шума города и уединиться с природой. Однако, из-за череды загадочных смертей, дом опустел. Никто не горел желанием приобретать недвижимость, в которой погибали люди. Ведь никто не мог объяснить причину их кончины. Частенько строение посещали отчаянные подростки, которые хотели пощекотать себе нервы. Но постепенно и их визиты стали редкостью. Причиной этого послужили странные силуэты и шумы, которые наполняли дом.

Качество: WEB-DL 720p
Формат: MKV

Видео: 1280x720 at 23.976 fps, MPEG-4 AVC, ~1800 kbps avg
Аудио#1: Russian: 48 kHz, AC3, 3/2 (L,C,R,l,r) + LFE ch, ~384 kbps avg |Многоголосый закадровый, АРК-ТВ Studio & VSI International|
Аудио#2: English: 48 kHz, AC3, 3/2 (L,C,R,l,r) + LFE ch, ~384 kbps avg
скриншот  скриншот  скриншот  скриншот  

Общее
Уникальный идентификатор : 244280793914568318487257814210365014417 (0xB7C6C50372E88970BB9A0DB84CD6C191)
Полное имя : D:\The.Haunting.of.Hill.House.S01.720p.WEB-DL\The.Haunting.of.Hill.House.S01E01.Steven.Sees.a.Ghost.720p.WEB-DL.ИВ.mkv
Формат : Matroska
Версия формата : Version 2
Размер файла : 778 Мбайт
Продолжительность : 1 ч. 0 м.
Режим общего битрейта : Переменный
Общий поток : 1809 Кбит/сек
Дата кодирования : UTC 2018-10-12 17:51:21
Программа кодирования : mkvmerge v7.8.0 ('River Man') 32bit built on Apr 3 2015 12:11:22
Библиотека кодирования : libebml v1.3.1 + libmatroska v1.4.2
Обложка : Yes
Attachments : cover.jpg

Видео
Идентификатор : 1
Формат : AVC
Формат/Информация : Advanced Video Codec
Профиль формата : Main@L3.1
Параметр CABAC формата : Да
Параметр RefFrames формата : 3 кадра
Идентификатор кодека : V_MPEG4/ISO/AVC
Продолжительность : 1 ч. 0 м.
Вид битрейта : Переменный
Битрейт : 1050 Кбит/сек
Максимальный битрейт : 1575 Кбит/сек
Ширина : 1280 пикселей
Высота : 720 пикселей
Соотношение сторон : 16:9
Режим частоты кадров : Постоянный
Частота кадров : 23,976 (24000/1001) кадра/сек
Цветовое пространство : YUV
Субдискретизация насыщенности : 4:2:0
Битовая глубина : 8 бит
Тип развёртки : Прогрессивная
Бит/(Пиксели*Кадры) : 0.048
Размер потока : 432 Мбайт (56%)
Библиотека кодирования : x264 core 148 r2715 7e75228
Настройки программы : cabac=1 / ref=3 / deblock=1:0:0 / analyse=0x1:0x111 / me=umh / subme=10 / psy=1 / psy_rd=1.00:0.00 / mixed_ref=1 / me_range=24 / chroma_me=1 / trellis=2 / 8x8dct=0 / cqm=0 / deadzone=21,11 / fast_pskip=1 / chroma_qp_offset=-2 / threads=8 / lookahead_threads=1 / sliced_threads=0 / nr=0 / decimate=1 / interlaced=0 / bluray_compat=0 / stitchable=1 / constrained_intra=0 / bframes=2 / b_pyramid=0 / b_adapt=2 / b_bias=0 / direct=3 / weightb=1 / open_gop=0 / weightp=2 / keyint=48 / keyint_min=25 / scenecut=0 / intra_refresh=0 / rc_lookahead=48 / rc=2pass / mbtree=1 / bitrate=1050 / ratetol=1.0 / qcomp=0.50 / qpmin=6 / qpmax=51 / qpstep=4 / cplxblur=20.0 / qblur=0.5 / vbv_maxrate=1575 / vbv_bufsize=2100 / nal_hrd=vbr / filler=0 / ip_ratio=1.40 / aq=1:1.00
Default : Да
Forced : Нет

Аудио #1
Идентификатор : 2
Формат : AC-3
Формат/Информация : Audio Coding 3
Расширение режима : CM (complete main)
Параметр Endianness формата : Big
Идентификатор кодека : A_AC3
Продолжительность : 1 ч. 0 м.
Вид битрейта : Постоянный
Битрейт : 384 Кбит/сек
Каналы : 6 каналов
Расположение каналов : Front: L C R, Side: L R, LFE
Частота : 48,0 КГц
Частота кадров : 31,250 кадров/сек (1536 spf)
Метод сжатия : С потерями
Размер потока : 165 Мбайт (21%)
Язык : Russian
Default : Да
Forced : Нет

Аудио #2
Идентификатор : 3
Формат : AC-3
Формат/Информация : Audio Coding 3
Расширение режима : CM (complete main)
Параметр Endianness формата : Big
Идентификатор кодека : A_AC3
Продолжительность : 1 ч. 0 м.
Вид битрейта : Постоянный
Битрейт : 384 Кбит/сек
Каналы : 6 каналов
Расположение каналов : Front: L C R, Side: L R, LFE
Частота : 48,0 КГц
Частота кадров : 31,250 кадров/сек (1536 spf)
Метод сжатия : С потерями
Размер потока : 165 Мбайт (21%)
Язык : English
Default : Нет
Forced : Нет

Текст #1
Идентификатор : 4
Формат : UTF-8
Идентификатор кодека : S_TEXT/UTF8
Идентификатор кодека/Информация : UTF-8 Plain Text
Язык : Russian
Default : Нет
Forced : Нет

Текст #2
Идентификатор : 5
Формат : UTF-8
Идентификатор кодека : S_TEXT/UTF8
Идентификатор кодека/Информация : UTF-8 Plain Text
Заголовок : SDH
Язык : English
Default : Да
Forced : Нет

pb.wtf



Скачать Призраки дома на холме через торрент http://img10.lostpic.net/2018/10/13/9d4c39ab6acc9a06fbd73a8fb0ec6e0c.jpg Скачать фильм Призраки дома на холме через торрент бесплантно в хорошем качестве Описание: В провинциальном городке, в котором живет главный герой, есть старинный особняк, расположенный недалеко от лесного массива. ... 9.9 10 12
Торрент: Зарегистрирован [2018-10-13 07:40] · скачан: 472 раз
Статус: √ проверено
Размер: 7.25 GB
Как cкачать? Как скачать Призраки дома на холме через торрент | qTorrent

% Раздел Тема Автор DL S | L
Зарубежные сериалы [ 6.91 GB ] Призраки дома на холме / The Haunting of Hill House / Сезон: 1 / Серии: 1-10 из 10 [2018 WEB-DLRip] MVO [NewStudio] bober100 Скачать
7 | 2
Зарубежные сериалы [ 7.44 GB ] Призраки дома на холме / The Haunting of Hill House / Сезон: 1 / Серии: 1-10 из 10 [2018 WEB-DLRip] [MVO] killermax2013 Скачать
1 | 0
Зарубежные сериалы [ 6.91 GB ] Призраки дома на холме / The Haunting of Hill House / Сезон: 1 / Серии: 1-10 из 10 [2018 WEB-DLRip] MVO [LostFilm] bober100 Скачать
3 | 0
Зарубежные сериалы [ 7.43 GB ] Призраки дома на холме / The Haunting of Hill House / Сезон: 1 / Серии: 1-10 из 10 [2018 WEB-DL 720p] [MVO] killermax2013 Скачать
1 | 0
Зарубежные сериалы [ 27.73 GB ] Призраки дома на холме / The Haunting of Hill House / Сезон: 1 / Серии: 1-10 из 10 [2018 WEBRip 1080p] MVO [NewStudio] bober100 Скачать
1 | 0
Зарубежные сериалы [ 11.93 GB ] Призраки дома на холме / The Haunting of Hill House / Сезон: 1 / Серии: 1-10 из 10 [2018 WEB-DL 1080p] [MVO] killermax2013 Скачать
1 | 0
Зарубежные сериалы [ 12.98 GB ] Призраки дома на холме / The Haunting of Hill House / Сезон: 1 / Серии: 1-10 из 10 [2018 WEB-DL 1080p] MVO [АРК-ТВ Studio & VSI International] bober100 Скачать
1 | 0

28-11-2019 20:33  

Отключить всю рекламу на сайте

    Дорогой пользователь! Огромная просьба, поблагодарите релизера, оцените раздачу и оставьте свои комментарий, если Вы скачали Призраки дома на холме через торрент бесплатно! Внесите свою лепту в развитие PiratBit!
    Комментировать посты могут только пользователи прошедшие не сложную регистрацию
    Показать сообщения:    

    Призраки дома на холме через торрент
    Скачать бесплатно Призраки дома на холме
    Призраки дома на холме скачать торрент
    Призраки дома на холме смотреть онлайн
    Cкачать фильм Призраки дома на холме бесплатно
    Призраки дома на холме скачать торрент в хорошем качестве
    Призраки дома на холме смотреть онлайн бесплатно в хорошем качестве


    Вы не можете начинать темы
    Вы не можете отвечать на сообщения
    Вы не можете редактировать свои сообщения
    Вы не можете удалять свои сообщения
    Вы не можете голосовать в опросах
    Вы не можете прикреплять файлы к сообщениям
    Вы можете скачивать файлы