новый адрес пиратбит piratbit
Мега распродажа FORZA HORIZON 4 ULTIMATE+ВСЕ DLC+ОНЛАЙН всего за 499р. 349 руб. (супер цена). Внимание количество ограничено!!!

iTunes

1+1

iTunes

мы

iTunes

1

iTunes

Чернобыль

iTunes

Ральф против интернета

Лицензия

ПШазам

Лицензия

Игра престолов

Лицензия

30
pack

ВАЖНО

!!Акция!!

Alien_RageХит недели

RePack

Resident Evil 21

ИГРА 18+

pack

RePack

Metro:Exodus

!!Акция!!

Alien_Rage

RePack

fifa19

RePack

Assassins Creed: Odyssey

RePack

NEED FOR SPEED™ PAYBACK

3 сезон

9 сезон

Бесстыжие 9 сезон

Все сериалы

все сериалы на PB.wtf

RePack

FAR CRY 5
Ребята, катастрофически не хватает 1900р. для оплаты серверов за Октябрь (всвязи с блокировками трафик упал в 3 раза), 1-2р., выручайте.
  

Приходите завтра... (Евгений Ташков) [1962, СССР, драма, мелодрама, комедия, музыка, HDTVRip от AVP Studio] pb.wtf

Приходите завтра... через торрент pb.wtf

Размер: 1.09 GB | Добавлен: 1 год 1 мес. назад | Торрент скачан:22 раза
Скачать  

13-10-2018 08:52 Приходите завтра... Скачать торрент  

Приходите завтра...
Страна: СССР
Год выпуска: 1962
Студия: Одесская киностудия

Жанр: драма, мелодрама, комедия, музыка
Продолжительность: 01:32:33

Перевод: не требуется
Оригинальная аудиодорожка: русский
Cубтитры: нет

Режиссер: Евгений Ташков

В ролях:
Екатерина Савинова, Анатолий Папанов, Юрий Горобец, Антонина Максимова, Надежда Животова, Александр Ширвиндт, Юрий Белов, Борис Бибиков...
Об актёрах подробней

Описание:
Простая и обаятельная девушка Фрося Бурлакова приезжает из сибирской деревушки в Москву поступать в консерваторию. У Фроси сильный и красивый голос, она подвижна и артистична, а потому ее заветная мечта должна непременно сбыться. Прием в консерваторию уже закончен, но Фрося не собирается опускать руки. Проведя в консерватории не один день, Фрося все же добивается, чтобы ее прослушал известный профессор...

Исходник: HDTV 1080i
Тип релиза: HDTVRip
Контейнер: AVI

Видео: 720x400 (16:9), 25,000 fps, XviD ~ 1293 kbps avg, 0.180 bit/pixel
Аудио: 48 kHz, Dolby Digital AC3 5.1 ch, 384.00 kbps

Раздача от:
Общее
Полное имя : Prihodite.zavtra...1962.BDRip_[New-team]_by_AVP_Studio.avi
Формат : AVI
Формат/Информация : Audio Video Interleave
Размер файла : 1,09 Гбайт
Продолжительность : 1 ч. 32 м.
Общий поток : 1687 Кбит/сек
Программа кодирования : VirtualDubMod 1.5.10.3 | www.virtualdub-fr.org || (build 2550/release)
Библиотека кодирования : VirtualDubMod build 2550/release

Видео
Идентификатор : 0
Формат : MPEG-4 Visual
Профиль формата : Advanced Simple@L5
Настройки формата : BVOP1 / Custom Matrix
Параметр BVOP формата : 1
Параметр QPel формата : Нет
Параметр GMC формата : Без точки перехода
Параметр матрицы формата : Выборочная
Идентификатор кодека : XVID
Идентификатор кодека/Подсказка : XviD
Продолжительность : 1 ч. 32 м.
Битрейт : 1293 Кбит/сек
Ширина : 720 пикселей
Высота : 400 пикселей
Соотношение сторон : 16:9
Частота кадров : 25,000 кадров/сек
Цветовое пространство : YUV
Субдискретизация насыщенности : 4:2:0
Битовая глубина : 8 бит
Тип развёртки : Прогрессивная
Метод сжатия : С потерями
Бит/(Пиксели*Кадры) : 0.180
Размер потока : 856 Мбайт (77%)
Библиотека кодирования : XviD 73

Аудио
Идентификатор : 1
Формат : AC-3
Формат/Информация : Audio Coding 3
Коммерческое название : Dolby Digital
Идентификатор кодека : 2000
Продолжительность : 1 ч. 32 м.
Вид битрейта : Постоянный
Битрейт : 384 Кбит/сек
Каналы : 6 каналов
Channel layout : L R C LFE Ls Rs
Частота : 48,0 КГц
Частота кадров : 31,250 кадров/сек (1536 SPF)
Битовая глубина : 16 бит
Метод сжатия : С потерями
Размер потока : 254 Мбайт (23%)
Выравнивание : Разделение по промежуткам
Продолжительность промежутка : 40 мс. (1,00 видеокадр)
Время предзагрузки промежутка : 500 мс
pb.wtf



Скачать Приходите завтра... через торрент http://picplus.ru/img/1810/13/5369a195.png Скачать фильм Приходите завтра... через торрент бесплантно в хорошем качестве Описание:Простая и обаятельная девушка Фрося Бурлакова приезжает из сибирской деревушки в Москву поступать в консерваторию. У Фроси сильный ... 10 10 1
Торрент: Зарегистрирован [2018-10-13 11:15] · скачан: 22 раз
Статус: √ проверено
Размер: 1.09 GB
Как cкачать? Как скачать Приходите завтра... через торрент | qTorrent

% Раздел Тема Автор DL S | L
Кино СССР [ 4.89 GB ] Приходите завтра... [1962 СССР музыка HDTVRip 1080p от AVP Studio] AVP Studio Скачать
1 | 0
Кино СССР [ 1.46 GB ] Приходите завтра... [1962 СССР музыка HDTVRip-AVC от AVP Studio] AVP Studio Скачать
1 | 0
Кино СССР [ 2.91 GB ] Приходите завтра... [1962 СССР музыка HDTVRip 720p от AVP Studio] AVP Studio Скачать
1 | 0
Наши фильмы (HD, WEB-DL 720p, 1080p) [ 6.92 GB ] Приходите завтра [1962 СССР BDRip 1080p] genkasper Скачать
1 | 0


Последний раз редактировалось: AVP Studio (2018-10-13 11:23), всего редактировалось 1 раз


>> Регистрируемся здесь <<






Отзывы и комментарии о схеме читаем и пишем здесь: ---> Отзывы и комментарии о схеме

Новые благодарочки в телеграм довольных пользователей:
скриншот   скриншот   скриншот   скриншот   скриншот

13-10-2018 11:19 Приходите завтра... Скачать торрент  

В исходнике был рассинхрон, не обратил внимание и рип получился с рассинхроном, исправил. Извините за неудобстваpb.wtf



13-10-2018 13:31 Приходите завтра... Скачать торрент  

Фрося Бурлакова )))pb.wtf



    Дорогой пользователь! Огромная просьба, поблагодарите релизера, оцените раздачу и оставьте свои комментарий, если Вы скачали Приходите завтра... через торрент бесплатно! Внесите свою лепту в развитие PiratBit!
    Комментировать посты могут только пользователи прошедшие не сложную регистрацию
    Показать сообщения:    

    Приходите завтра... через торрент
    Скачать бесплатно Приходите завтра...
    Приходите завтра... скачать торрент
    Приходите завтра... смотреть онлайн
    Cкачать фильм Приходите завтра... бесплатно
    Приходите завтра... скачать торрент в хорошем качестве
    Приходите завтра... смотреть онлайн бесплатно в хорошем качестве


    Вы не можете начинать темы
    Вы не можете отвечать на сообщения
    Вы не можете редактировать свои сообщения
    Вы не можете удалять свои сообщения
    Вы не можете голосовать в опросах
    Вы не можете прикреплять файлы к сообщениям
    Вы можете скачивать файлы