Ссылка на приватное зеркало нашего сайта всего за 1$. Внимание количество ограничено!!!

2 сезон

iTunes

1 сезон

1

iTunes

iTunes

iTunes

1 сезон

RePack

30

ИГРА 18+

pack

ВАЖНО

!!Акция!!

Alien_RageХит недели

RePack

MK11
pack

Забери бонус

RePack

jed

!!Акция!!

Alien_Rage

RePack

fifa19

RePack

Assassins Creed: Odyssey

RePack

NEED FOR SPEED™ PAYBACK

4 сезон

9 сезон

Бесстыжие 9 сезон

Все сериалы

все сериалы на PB.wtf

RePack

FAR CRY 5
  

Третий должен уйти / Серии: 1-4 из 4 (Максим Кубринский) [2018, Мелодрама, SATRip] pb.wtf

Третий должен уйти через торрент pb.wtf

Размер: 2.43 GB | Добавлен: 2 года назад | Торрент скачан:38 раз
Скачать  

14-10-2018 01:22 Третий должен уйти Скачать торрент  

Третий должен уйтиГод выпуска: 2018
Страна: Россия
Жанр: Мелодрама
Продолжительность: ~ 00:44:00
Субтитры: отсутствуют

Режиссер: Максим Кубринский



В ролях:

Глафира Тарханова, Анатолий Руденко, Дмитрий Ратомский, Алла Подчуфарова, Артём Федотов, Екатерина Виноградова, Светлана Чернова, Андрей Харыбин, Екатерина Седик, Никита Тезов

Описание:

Лиза Андреева (Глафира Тарханова) привыкла во всем поддерживать своего любимого мужа Илью (Анатолий Руденко) и уверена, что за ним она "как за каменной стеной". Она радуется его успехам в ресторанном бизнесе и строит большие планы.
Но чем лучше идут дела Ильи, тем больше у Лизы появляется причин для ревности. Она старается не реагировать на знаки внимания, которые он оказывает другим женщинам, и уговаривает себя, что муж не мог разлюбить ее. Но однажды Илью обвиняют в изнасиловании, и он оказывается в тюрьме…
Теперь Лизе придется решить, сможет ли она поверить человеку, с которым была счастлива двенадцать лет...

Качество: SATRip
Формат: AVI

Видео: 720x400 (1.80:1), 25 fps, XviD build 50 ~1800 kbps avg, 0.25 bit/pixel
Аудио: 48 kHz, MPEG Layer 3, 2 ch, ~128.00 kbps avg
скриншот   скриншот   скриншот  

Общее
Полное имя : D:\Tretij.dolzhen.ujti.SATRip.[www.riperam.org]\Tretij.dolzhen.ujti.01.SATRip.[www.riperam.org].avi
Формат : AVI
Формат/Информация : Audio Video Interleave
Размер файла : 634 Мбайт
Продолжительность : 45 м. 45 с.
Общий поток : 1938 Кбит/сек
Программа кодирования : VirtualDubMod 1.5.10.3 | www.virtualdub-fr.org || (build 2550/release)
Библиотека кодирования : VirtualDubMod build 2550/release

Видео
Идентификатор : 0
Формат : MPEG-4 Visual
Профиль формата : Advanced Simple@L5
Параметр BVOP формата : 2
Параметр QPel формата : Нет
Параметр GMC формата : Без точки перехода
Параметр матрицы формата : Default (H.263)
Идентификатор кодека : XVID
Идентификатор кодека/Подсказка : XviD
Продолжительность : 45 м. 45 с.
Битрейт : 1800 Кбит/сек
Ширина : 720 пикселей
Высота : 400 пикселей
Соотношение сторон : 16:9
Частота кадров : 25,000 кадров/сек
Цветовое пространство : YUV
Субдискретизация насыщенности : 4:2:0
Битовая глубина : 8 бит
Тип развёртки : Прогрессивная
Метод сжатия : С потерями
Бит/(Пиксели*Кадры) : 0.250
Размер потока : 589 Мбайт (93%)
Библиотека кодирования : XviD 1.2.1 (UTC 2008-12-04)

Аудио
Идентификатор : 1
Формат : MPEG Audio
Версия формата : Version 1
Профиль формата : Layer 3
Режим : Joint stereo
Расширение режима : MS Stereo
Идентификатор кодека : 55
Идентификатор кодека/Подсказка : MP3
Продолжительность : 45 м. 45 с.
Вид битрейта : Постоянный
Битрейт : 128 Кбит/сек
Каналы : 2 канала
Частота : 48,0 КГц
Метод сжатия : С потерями
Размер потока : 41,9 Мбайт (7%)
Выравнивание : Соединение по промежуткам
Продолжительность промежутка : 40 мс. (1,00 видеокадр)
Время предзагрузки промежутка : 504 мс.
Библиотека кодирования : LAME3.99r
Настройки программы : -m j -V 4 -q 9 -lowpass 17 -b 128

pb.wtf



Скачать Третий должен уйти через торрент http://i77.fastpic.ru/big/2018/1013/c4/17da2cd7236c20e14144343c1b95f5c4.jpg Скачать фильм Третий должен уйти через торрент бесплантно в хорошем качестве Описание: Лиза Андреева (Глафира Тарханова) привыкла во всем поддерживать своего любимого мужа Илью (Анатолий Руденко) и уверена, что за ... 10 10 5
Торрент: Зарегистрирован [2018-10-14 01:22] · скачан: 38 раз
Статус: √ проверено
Размер: 2.43 GB
Как cкачать? Как скачать Третий должен уйти через торрент | qTorrent

28-11-2019 20:33  

Отключить всю рекламу на сайте

    Дорогой пользователь! Огромная просьба, поблагодарите релизера, оцените раздачу и оставьте свои комментарий, если Вы скачали Третий должен уйти через торрент бесплатно! Внесите свою лепту в развитие PiratBit!
    Комментировать посты могут только пользователи прошедшие не сложную регистрацию
    Показать сообщения:    

    Третий должен уйти через торрент
    Скачать бесплатно Третий должен уйти
    Третий должен уйти скачать торрент
    Третий должен уйти смотреть онлайн
    Cкачать фильм Третий должен уйти бесплатно
    Третий должен уйти скачать торрент в хорошем качестве
    Третий должен уйти смотреть онлайн бесплатно в хорошем качестве


    Вы не можете начинать темы
    Вы не можете отвечать на сообщения
    Вы не можете редактировать свои сообщения
    Вы не можете удалять свои сообщения
    Вы не можете голосовать в опросах
    Вы не можете прикреплять файлы к сообщениям
    Вы можете скачивать файлы