новый адрес
Мега распродажа FORZA HORIZON 4 ULTIMATE+ВСЕ DLC+ОНЛАЙН всего за 499р. 349 руб. (супер цена). Внимание количество ограничено!!!

iTunes

1+1

iTunes

мы

iTunes

1

iTunes

Чернобыль

iTunes

Ральф против интернета

Лицензия

ПШазам

Лицензия

Оно 2

Лицензия

30
pack

ВАЖНО

!!Акция!!

Alien_RageХит недели

RePack

Resident Evil 21

ИГРА 18+

pack

RePack

jed

!!Акция!!

Alien_Rage

RePack

fifa19

RePack

Assassins Creed: Odyssey

RePack

NEED FOR SPEED™ PAYBACK

3 сезон

9 сезон

Бесстыжие 9 сезон

Все сериалы

все сериалы на PB.wtf

RePack

FAR CRY 5
Ребята, катастрофически не хватает 1900р. для оплаты серверов за Октябрь (всвязи с блокировками трафик упал в 3 раза), 1-2р., выручайте.
  

Временные трудности (Михаил Расходников) [2018, драма, мелодрама, WEB-DLRip] pb.wtf

Временные трудности через торрент pb.wtf

Раздают: 2 [ 0 KB/s ]
Размер: 1.46 GB | Добавлен: 1 год 1 мес. назад | Торрент скачан:935 раз
Скачать  

14-10-2018 02:24 Временные трудности Скачать торрент  

Временные трудности
Год выпуска: 2018
Страна: Россия
Жанр: драма, мелодрама
Продолжительность: 01:23:25
Перевод: Не требуется
Субтитры: отсутствуют

Режиссер: Михаил Расходников

rating

В ролях:

Иван Охлобыстин, Риналь Мухаметов, Виктория Соловьёва, Ян Цапник, Илья Рязанов, Ирина Пегова, Ирина Маликова, Николай Ковбас

Описание:

У Саши Ковалёва была врожденная болезнь. Отец мальчика выбрал, как ему казалось, единственно правильный способ поставить сына на ноги — относиться к нему как к здоровому человеку. «Ты не больной — у тебя временные трудности». Поесть, одеться, спуститься и подняться по лестнице подъезда — каждый день у ребенка уходили часы на то, чтобы справиться с простыми бытовыми задачами. В школе — издевательства сверстников. И помощи ждать было не от кого. Мальчик справился с болезнью, но возненавидел отца. Окончив школу, Саша уехал из дома и прекратил всякое общение с отцом. За 15 лет он стал лучшим бизнес-консультантом страны, который вывел из кризиса сотни бизнесов. «У вас не кризис — у вас временные трудности» — говорил своим клиентам прошедший тяжелый путь становления Александр. Но однажды новый заказ дает ему неожиданную возможность поквитаться с отцом.

Качество: WEB-DLRip
Формат: AVI

Видео: XviD build 73, 720x304 (2.35:1), 24.000 fps, 2107 Kbps (0.401 bit/pixel)
Аудио: 48.0 kHz, AC3, 5/1 ch, 384 kbps
скриншот  скриншот  скриншот  скриншот  

General
Complete name : D:RazdachiVremennye.Trudnosti.2017.XviD.WEB-DLRip.GeneralFilm.avi
Format : AVI
Format/Info : Audio Video Interleave
File size : 1.46 GiB
Duration : 1 h 23 min
Overall bit rate : 2 500 kb/s
Writing application : VirtualDubMod 1.5.10.3 | www.virtualdub-fr.org || (build 2550/release)
Writing library : VirtualDubMod build 2550/release

Video
ID : 0
Format : MPEG-4 Visual
Format profile : Advanced Simple@L5
Format settings, BVOP : 1
Format settings, QPel : No
Format settings, GMC : No warppoints
Format settings, Matrix : Custom
Codec ID : XVID
Codec ID/Hint : XviD
Duration : 1 h 23 min
Bit rate : 2 107 kb/s
Width : 720 pixels
Height : 304 pixels
Display aspect ratio : 2.35:1
Frame rate : 24.000 FPS
Color space : YUV
Chroma subsampling : 4:2:0
Bit depth : 8 bits
Scan type : Progressive
Compression mode : Lossy
Bits/(Pixel*Frame) : 0.401
Stream size : 1.23 GiB (84%)
Writing library : XviD 73

Audio
ID : 1
Format : AC-3
Format/Info : Audio Coding 3
Format settings, Endianness : Big
Codec ID : 2000
Duration : 1 h 23 min
Bit rate mode : Constant
Bit rate : 384 kb/s
Channel(s) : 6 channels
Channel positions : Front: L C R, Side: L R, LFE
Sampling rate : 48.0 kHz
Frame rate : 31.250 FPS (1536 SPF)
Bit depth : 16 bits
Compression mode : Lossy
Stream size : 229 MiB (15%)
Alignment : Split accross interleaves
Interleave, duration : 42 ms (1.00 video frame)
Interleave, preload duratio : 500 ms
Service kind : Complete Main

pb.wtf



Скачать Временные трудности через торрент http://img10.lostpic.net/2018/10/14/ad09991d88143c129608c96df22f7780.jpg Скачать фильм Временные трудности через торрент бесплантно в хорошем качестве Описание: У Саши Ковалёва была врожденная болезнь. Отец мальчика выбрал, как ему казалось, единственно правильный способ поставить сына на ... 9.8 10 22
Info! Золотая раздача, скачанное не засчитывается.
Торрент: Зарегистрирован [2018-10-14 02:24] · скачан: 935 раз
Статус: √ проверено
Размер: 1.46 GB
Как cкачать? Как скачать Временные трудности через торрент | qTorrent

% Раздел Тема Автор DL S | L
Наши фильмы (HD, WEB-DL 720p, 1080p) [ 3.21 GB ] Временные трудности [2018 WEB-DL 1080p] bober100 Скачать
5 | 0
Наши новые фильмы 2018-2019 [ 745 MB ] Временные трудности [2018 WEB-DLRip] bober100 Скачать
2 | 0
Наши фильмы (HD, WEB-DL 720p, 1080p) [ 1.72 GB ] Временные трудности [2018 WEB-DL 720p] bober100 Скачать
5 | 0


>> Регистрируемся здесь <<






Отзывы и комментарии о схеме читаем и пишем здесь: ---> Отзывы и комментарии о схеме

Новые благодарочки в телеграм довольных пользователей:
скриншот   скриншот   скриншот   скриншот   скриншот
    Дорогой пользователь! Огромная просьба, поблагодарите релизера, оцените раздачу и оставьте свои комментарий, если Вы скачали Временные трудности через торрент бесплатно! Внесите свою лепту в развитие PiratBit!
    Комментировать посты могут только пользователи прошедшие не сложную регистрацию
    Показать сообщения:    

    Временные трудности через торрент
    Скачать бесплатно Временные трудности
    Временные трудности скачать торрент
    Временные трудности смотреть онлайн
    Cкачать фильм Временные трудности бесплатно
    Временные трудности скачать торрент в хорошем качестве
    Временные трудности смотреть онлайн бесплатно в хорошем качестве


    Вы не можете начинать темы
    Вы не можете отвечать на сообщения
    Вы не можете редактировать свои сообщения
    Вы не можете удалять свои сообщения
    Вы не можете голосовать в опросах
    Вы не можете прикреплять файлы к сообщениям
    Вы можете скачивать файлы