Доктор Стрэндж

Лицензия

Добыча

MVO

Дом дракона

1 сезон

Тор

Лицензия

Мэверик

Лицензия

Там, где раки поют

MVO

Властелин колец

1 сезон

Ultimate

pack

Рекомендуем

30

Repack

ВАЖНО

ВАЖНО

Ghostwire

RePack

jed

RePack

nioh2

RePack

RDR2

RePack

NEED FOR SPEED™ PAYBACK

RePack

скачать торрент

Кинопоиск HD

Острые козырьки 6 сезон

6 сезон

FAR CRY 6

RePack

скачать торрент

Лицензия

скачать торрент

MVO

1

1 сезон

скачать торрент

1 сезон

скачать торрент

Лицензия

  

Впереди день / Сезон: 1 / Серии: 1-8 из 8 (Евгений Семёнов) [2018, Мелодрама, HDTV 1080i]

Впереди день через торрент pb.wtf

Размер: 21.72 GB | Добавлен: 3 года 11 мес. назад | Торрент скачан:24 раза
Смотреть онлайн | Скачать   

14-10-2018 02:53 Впереди день Скачать торрент  

Впереди деньГод выпуска: 2018
Страна: Россия
Жанр: Мелодрама
Продолжительность: ~ 00:45:00 серия
Субтитры: отсутствуют

Режиссер: Евгений Семёнов



В ролях:

Тулинова, Яна Гурьянова, Михаил Пшеничный, Александр Никитин, Александр Асташёнок, Виталий Егоров, Денис Старков, Евгений Березовский, Севастьян Бугаев

Описание:

Лихие 90-е… В центре сюжета три женщины – подруги, жены "новых русских" Нина и Лена (Екатерина Редникова, Ирина Горячева) и Мила (Мария Куликова), домработница Нины. По странному совпадению всем трем скоро рожать. Как выяснится, от Кирилла (Сергей Горобченко) беременна не только его жена Нина, но и Мила! Женщины встречаются в ресторане, чтобы выяснить отношения и разобраться в сложившейся ситуации. И никто не знает, чем бы это закончилось – скандалом с битьем посуды, проклятьями в адрес Кирилла, взаимными обвинениями, – но внезапно вспыхнувшая бандитская разборка становится причиной неожиданного поворота в сюжете. У женщин начинаются роды… У всех трех одновременно. Побывав под бандитскими пулями, Нина, Лена и Мила становятся подругами на всю жизнь. Но как же им быть с неверным мужем, который в этот день стал отцом сразу двух дочек? Кирилл принимает неожиданное решение – развестись с Ниной и жениться на домработнице… Проходит 17 лет. Мила больше не прислуга. Теперь она богатая светская дама. А Нина и Лена, наоборот, с трудом сводят концы с концами, и лишь поддержка Милы помогает им удержаться на плаву. Их дочки – Ира (Майя Горбань), Оля (Александра Тулинова) и Маша (Яна Гурьянова), которые родились в один день, – тоже лучшие подруги. Они собираются вместе, чтобы отметить общий день рождения. Но веселье омрачает появление незваного гостя: бывший сообщник Кирилла требует от его близких вернуть его долги. И в один миг праздник превращается в свою противоположность…

Качество: HDTV 1080i
Формат: MKV

Видео: MPEG-4 AVC, ~ 7100 Кбит/с, 1920x1080
Аудио: MP2, 2 ch, 192 Кбит/с
скриншот   скриншот   скриншот  

Общее
Идентификатор : 1 (0x1)
Полное имя : D:\Vperedi.den.2018.HDTV.1080i\Vperedi.den.01.2018.HDTV.1080i.ts
Формат : MPEG-TS
Размер файла : 2,69 Гбайт
Продолжительность : 50 м. 17 с.
Режим общего битрейта : Переменный
Общий поток : 7649 Кбит/сек

Видео
Идентификатор : 2911 (0xB5F)
Идентификатор меню : 1192 (0x4A8)
Формат : AVC
Формат/Информация : Advanced Video Codec
Профиль формата : [email protected]
Параметр CABAC формата : Да
Параметр RefFrames формата : 4 кадра
Идентификатор кодека : 27
Продолжительность : 50 м. 17 с.
Битрейт : 7077 Кбит/сек
Ширина : 1920 пикселей
Высота : 1080 пикселей
Соотношение сторон : 16:9
Частота кадров : 25,000 кадров/сек
Цветовое пространство : YUV
Субдискретизация насыщенности : 4:2:0
Битовая глубина : 8 бит
Тип развёртки : MBAFF
Метод сохранения типа развёртки : Чередующиеся поля
Порядок развёртки : Верхнее поле первое
Бит/(Пиксели*Кадры) : 0.137
Размер потока : 2,49 Гбайт (93%)

Аудио
Идентификатор : 2912 (0xB60)
Идентификатор меню : 1192 (0x4A8)
Формат : MPEG Audio
Версия формата : Version 1
Профиль формата : Layer 2
Идентификатор кодека : 3
Продолжительность : 50 м. 17 с.
Вид битрейта : Постоянный
Битрейт : 192 Кбит/сек
Каналы : 2 канала
Частота : 48,0 КГц
Метод сжатия : С потерями
Размер потока : 69,1 Мбайт (3%)
Язык : Russian




Скачать Впереди день через торрент http://i91.fastpic.ru/big/2018/1008/ed/937765f53c491e97d5fe44ba3df399ed.jpg Скачать, смотреть онлайн Впереди день бесплантно в хорошем качестве Описание: Лихие 90-е… В центре сюжета три женщины – подруги, жены "новых русских" Нина и Лена (Екатерина Редникова, Ирина Горячева) и Мила ... 9.7 10 3
Info! Золотая раздача, скачанное не засчитывается.
Торрент: Зарегистрирован [2018-10-14 02:53] · скачан: 24 раз
Статус: √ проверено
Размер: 21.72 GB
Как cкачать? Как скачать Впереди день через торрент | UTorrent

% Раздел Тема Автор DL S | L
Наши сериалы [ 4.35 GB ] Впереди день / Сезон: 1 / Серии: 1-8 из 8 | | DLRip bober100 Скачать
1 | 0
Наши сериалы [ 11.91 GB ] Впереди день / Сезон: 1 / Серии: 1-8 из 8 | | HDTVRip 720p bober100 Скачать
1 | 0
Наши сериалы [ 6.22 GB ] Впереди день / Сезон: 1 / Серии: 1-8 из 8 | | HDTVRip-AVC bober100 Скачать
1 | 0
Наши сериалы [ 4.81 GB ] Впереди день / Сезон: 1 / Серии: 1-8 из 8 | | HDTVRip bober100 Скачать
1 | 0
Наши сериалы [ 5.54 GB ] Впереди день / Сезон: 1 / Серии: 1-8 из 8 | | SATRip bober100 Скачать
1 | 0

28-11-2019 20:33  


Отключить вcю реклaмy на сайте, в т.ч. и в плеере онлайн просмотра!

    Дорогой пользователь! Огромная просьба, поблагодарите релизера, оцените раздачу и оставьте свои комментарий, если Вы скачали Впереди день через торрент бесплатно!!
    Комментировать посты могут только пользователи прошедшие не сложную регистрацию
    Показать сообщения:    


    Впереди день через торрент
    Скачать бесплатно Впереди день
    Впереди день скачать торрент
    Впереди день смотреть онлайн
    Cкачать фильм Впереди день бесплатно
    Впереди день скачать торрент в хорошем качестве
    Впереди день смотреть онлайн бесплатно в хорошем качестве
    Вы не можете начинать темы
    Вы не можете отвечать на сообщения
    Вы не можете редактировать свои сообщения
    Вы не можете удалять свои сообщения
    Вы не можете голосовать в опросах
    Вы не можете прикреплять файлы к сообщениям
    Вы можете скачивать файлы