Marvel's Avengers Deluxe Edition (супер цена) 159р. Внимание количество ограничено!!!

2 сезон

iTunes

iTunes

1

iTunes

iTunes

iTunes

WEBRip

iTunes

30
pack

Новость дня

ВАЖНО

!!Акция!!

Alien_RageХит недели

RePack

Horizon Zero Dawn

ИГРА 18+

pack

RePack

jed

!!Акция!!

Alien_Rage

RePack

fifa19

RePack

Assassins Creed: Odyssey

RePack

NEED FOR SPEED™ PAYBACK

4 сезон

9 сезон

Бесстыжие 9 сезон

Все сериалы

все сериалы на PB.wtf

RePack

FAR CRY 5
  

Аризона / Arizona (Джонатан Уотсон) [2018, Триллер, комедия, криминал, UHD BDRemux 2160p] MVO [HDRezka Studio] pb.wtf

Аризона через торрент pb.wtf

Размер: 32.26 GB | Добавлен: 1 год 11 мес. назад | Торрент скачан:22 раза
Скачать  

14-10-2018 08:34 Аризона Скачать торрент  

Аризона / Arizona
Год выпуска: 2018
Страна: США
Жанр: Триллер, комедия, криминал
Продолжительность: 01:23:37
Перевод: Профессиональный (многоголосый) | HDRezka Studio
Субтитры: Английские

Режиссер: Джонатан Уотсон

rating

В ролях:

Элизабет Гиллис, Дэнни МакБрайд, Кэйтлин Олсон, Розмари ДеУитт, Люк Уилсон, Дэвид Алан Грир, Трэвис Хаммер, Каллен Мосс, Джейд Каммерман, Одри Уолтерс

Описание:

Кесси, агент по продаже недвижимости и мать-одиночка, пытается справиться с жилищным кризисом 2009 года. Ситуация только ухудшается, когда в ее жизнь врывается недовольный клиент Сонни, чьи действия приносят только разрушение и смерть.

Качество: UHD BDRemux 2160p
Формат: MKV

Видео: HEVC HDR, 51.4 Mбит/с, 3840x2160, 23.976 кадр/с
Аудио#1: 48 kHz, AC3 Dolby Digital, 2 (L,R) ch, ~192.00 kbps avg | RUS (HDRezka Studio)
Аудио#2: DTS-HD MA, 6 ch, 3675 Кбит/с | ENG
скриншот  скриншот  скриншот  скриншот  скриншот  

General
Unique ID : 46021298364403332263901748982984599876 (0x229F61316520CC8CF67FA728A199E944)
Complete name : C:UsersPublicVideosSample VideosFilmyArizona.2018.BDRemux.2160p.HDR.MediaClub.mkv
Format : Matroska
Format version : Version 4
File size : 32.3 GiB
Duration : 1 h 23 min
Overall bit rate mode : Variable
Overall bit rate : 55.2 Mb/s
Encoded date : UTC 2018-10-14 07:27:20
Writing application : mkvmerge v25.0.0 ('Prog Noir') 64-bit
Writing library : libebml v1.3.6 + libmatroska v1.4.9
Cover : Yes
Attachments : cover.jpg

Video
ID : 1
Format : HEVC
Format/Info : High Efficiency Video Coding
Commercial name : HDR10
Format profile : Main 10@L5.1@High
Codec ID : V_MPEGH/ISO/HEVC
Duration : 1 h 23 min
Bit rate : 51.4 Mb/s
Width : 3 840 pixels
Height : 2 160 pixels
Display aspect ratio : 16:9
Frame rate mode : Constant
Frame rate : 23.976 (24000/1001) FPS
Color space : YUV
Chroma subsampling : 4:2:0 (Type 2)
Bit depth : 10 bits
Bits/(Pixel*Frame) : 0.258
Stream size : 30.0 GiB (93%)
Title : BDRemux.2160p.HDR by Silverok
Default : Yes
Forced : No
Color range : Limited
Color primaries : BT.2020
Transfer characteristics : PQ
Matrix coefficients : BT.2020 non-constant
Mastering display color primaries : R: x=0.680000 y=0.320000, G: x=0.265000 y=0.690000, B: x=0.150000 y=0.060000, White point: x=0.312680 y=0.329000
Mastering display luminance : min: 0.0000 cd/m2, max: 1000 cd/m2
Maximum Content Light Level : 1000 cd/m2
Maximum Frame-Average Light Level : 193 cd/m2

Audio #1
ID : 2
Format : AC-3
Format/Info : Audio Coding 3
Commercial name : Dolby Digital
Codec ID : A_AC3
Duration : 1 h 23 min
Bit rate mode : Constant
Bit rate : 192 kb/s
Channel(s) : 2 channels
Channel layout : L R
Sampling rate : 48.0 kHz
Frame rate : 31.250 FPS (1536 SPF)
Bit depth : 16 bits
Compression mode : Lossy
Stream size : 115 MiB (0%)
Title : Профессиональный многоголосый | [HDRezka Studio]
Language : Russian
Service kind : Complete Main
Default : Yes
Forced : No

Audio #2
ID : 3
Format : DTS XLL
Format/Info : Digital Theater Systems
Commercial name : DTS-HD Master Audio
Codec ID : A_DTS
Duration : 1 h 23 min
Bit rate mode : Variable
Bit rate : 3 675 kb/s
Channel(s) : 6 channels
Channel layout : C L R Ls Rs LFE
Sampling rate : 48.0 kHz
Frame rate : 93.750 FPS (512 SPF)
Bit depth : 24 bits
Compression mode : Lossless
Stream size : 2.15 GiB (7%)
Language : English
Default : No
Forced : No

Text
ID : 4
Format : UTF-8
Codec ID : S_TEXT/UTF8
Codec ID/Info : UTF-8 Plain Text
Duration : 1 h 20 min
Bit rate : 76 b/s
Count of elements : 1430
Stream size : 44.8 KiB (0%)
Title : SDH
Language : English
Default : Yes
Forced : No

Menu
00:00:00.000 : :Chapter 1
00:07:19.564 : :Chapter 2
00:10:11.360 : :Chapter 3
00:27:37.405 : :Chapter 4
00:39:35.790 : :Chapter 5
00:51:15.405 : :Chapter 6
01:00:36.966 : :Chapter 7
01:09:39.008 : :Chapter 8
01:13:22.231 : :Chapter 9
01:18:50.183 : :Chapter 10

pb.wtf



Скачать Аризона через торрент http://img10.lostpic.net/2018/10/14/0598c380fc644d6b831af7b0d69b08c8.jpg Скачать фильм Аризона через торрент бесплантно в хорошем качестве Описание: Кесси, агент по продаже недвижимости и мать-одиночка, пытается справиться с жилищным кризисом 2009 года. Ситуация только ... 10 10 2
Торрент: Зарегистрирован [2018-10-14 08:34] · скачан: 22 раз
Статус: T временная
Размер: 32.26 GB
Как cкачать? Как скачать Аризона через торрент | qTorrent

% Раздел Тема Автор DL S | L
T Ultra HD (UHD: 2K, 4K, 8K) — видео сверхвысокой чёткости [ 20.38 GB ] Аризона / Arizona [2018 UHD BDRip 2160p] [SDR] MVO [HDRezka Studio] bober100 Скачать
1 | 0
T Ultra HD (UHD: 2K, 4K, 8K) — видео сверхвысокой чёткости [ 12.38 GB ] Аризона / Arizona [2018 UHD BDRip 2160p] MVO [HDRezka Studio] sheker187 Скачать
1 | 0
T Фильмы [HD 720p, 1080p] (Хороший звук DUB, MVO) [ 6.67 GB ] Аризона / Arizona [2018 BDRip 1080p HDRezka Studio] Бумер Скачать
1 | 0
T Фильмы 2018 [DVDrip, WEB-DLRip, HDrip] (DUB, MVO) [ 1.46 GB ] Аризона / Arizona [2018 WEB-DLRip-AVC] MVO [HDRezka Studio] bober100 Скачать
1 | 0
T Фильмы (WEB-DL 720p, 1080p) [ 3.05 GB ] Аризона / Arizona [2018 WEB-DL 1080p] MVO [HDRezka Studio] bober100 Скачать
1 | 0
Фильмы с авторской озвучкой [ 1.71 GB ] Воспитание Аризоны / Raising Arizona [1987 BDRip] 2x[AVO] killermax2013 Скачать
1 | 1

28-11-2019 20:33  

Отключить всю рекламу на сайте

    Дорогой пользователь! Огромная просьба, поблагодарите релизера, оцените раздачу и оставьте свои комментарий, если Вы скачали Аризона через торрент бесплатно! Внесите свою лепту в развитие PiratBit!
    Комментировать посты могут только пользователи прошедшие не сложную регистрацию
    Показать сообщения:    

    Аризона через торрент
    Скачать бесплатно Аризона
    Аризона скачать торрент
    Аризона смотреть онлайн
    Cкачать фильм Аризона бесплатно
    Аризона скачать торрент в хорошем качестве
    Аризона смотреть онлайн бесплатно в хорошем качестве


    Вы не можете начинать темы
    Вы не можете отвечать на сообщения
    Вы не можете редактировать свои сообщения
    Вы не можете удалять свои сообщения
    Вы не можете голосовать в опросах
    Вы не можете прикреплять файлы к сообщениям
    Вы можете скачивать файлы