Ссылка на приватное зеркало всего за 1$. Внимание количество ограничено!!!

OK

1+1

iTunes

мы

OK

1

WEB-DLRip

Джокер

Пифагор

Ведьмак / The Witcher сериал

Лицензия

ПШазам

ОК

Оно 2

iTunes

30
pack

Вам бонус

ВАЖНО

!!Акция!!

Alien_RageХит недели

RePack

Resident Evil 21

ИГРА 18+

pack

RePack

jed

!!Акция!!

Alien_Rage

RePack

fifa19

RePack

Assassins Creed: Odyssey

RePack

NEED FOR SPEED™ PAYBACK

4 сезон

9 сезон

Бесстыжие 9 сезон

Все сериалы

все сериалы на PB.wtf

RePack

FAR CRY 5
  

Единство героев / Huang fei hong zhi nan bei ying xiong / The Unity of Heroes (Линь Чжэньчжао) [2018, боевик, фантастика, BDRip 720p] MVO [КОЛОБОК] pb.wtf

Единство героев через торрент pb.wtf

Размер: 5.34 GB | Добавлен: 1 год 3 мес. назад | Торрент скачан:145 раз
Скачать  

14-10-2018 09:00 Единство героев Скачать торрент  

Единство героев / Huang fei hong zhi nan bei ying xiong / The Unity of Heroes Год выпуска: 2018
Страна: Китай
Жанр: боевик, фантастика
Продолжительность: 01:45:37
Перевод: Любительский (многоголосый) | КОЛОБОК
Субтитры: отсутствуют

Режиссер: Линь Чжэньчжао

rating

В ролях:

Винсент Чжао, Ли Бинъюань, Майкл Тун

Описание:

30-летняя женщина возвращается в Поднебесную после многих лет изучения западной медицины. Цели и мечты у нее самые благородные - совместить западные и восточные учения, чтобы помогать людям и спасать жизни. Но знания попадают не в те руки, и вот уже коварная компания создает из людей киборгов. Защищать мир придется мастеру боевых искусств, возлюбленному героини.

Качество: BDRip 720p
Формат: MKV

Видео: h.264,6 782 Кбит/с, 1280x556
Аудио#1: Русский (AC3, 2 ch, 448 Кбит/с)
скриншот  скриншот  скриншот  

Общее
Уникальный идентификатор : 187948129743006012794024530802343738193 (0x8D657E3C37F7A231B2ED28377968FB51)
Полное имя : D:\The.Unity.Of.Heroes.2O18.Pk.BDRip.72Op.mkv
Формат : Matroska
Версия формата : Version 2
Размер файла : 5,34 Гбайт
Продолжительность : 1 ч. 45 м.
Режим общего битрейта : Переменный
Общий поток : 7232 Кбит/сек
Дата кодирования : UTC 2018-10-13 06:01:25
Программа кодирования : mkvmerge v8.3.0 ('Over the Horizon') 64bit
Библиотека кодирования : libebml v1.3.1 + libmatroska v1.4.2

Видео
Идентификатор : 1
Формат : AVC
Формат/Информация : Advanced Video Codec
Профиль формата : High@L4.1
Параметр CABAC формата : Да
Параметр RefFrames формата : 4 кадра
Идентификатор кодека : V_MPEG4/ISO/AVC
Продолжительность : 1 ч. 45 м.
Вид битрейта : Переменный
Битрейт : 6782 Кбит/сек
Максимальный битрейт : 7500 Кбит/сек
Ширина : 1280 пикселей
Высота : 556 пикселей
Соотношение сторон : 2,35:1
Режим частоты кадров : Постоянный
Частота кадров : 23,976 (24000/1001) кадра/сек
Стандарт вещания : Component
Цветовое пространство : YUV
Субдискретизация насыщенности : 4:2:0
Битовая глубина : 8 бит
Тип развёртки : Прогрессивная
Бит/(Пиксели*Кадры) : 0.389
Размер потока : 4,90 Гбайт (92%)
Default : Да
Forced : Нет
Цветовой диапазон : Limited
Основные цвета : BT.709
Характеристики трансфера : BT.709
Коэффициенты матрицы : BT.709

Аудио
Идентификатор : 2
Формат : AC-3
Формат/Информация : Audio Coding 3
Расширение режима : CM (complete main)
Параметр Endianness формата : Big
Идентификатор кодека : A_AC3
Продолжительность : 1 ч. 45 м.
Вид битрейта : Постоянный
Битрейт : 448 Кбит/сек
Каналы : 2 канала
Расположение каналов : Front: L R
Частота : 48,0 КГц
Частота кадров : 31,250 кадров/сек (1536 spf)
Метод сжатия : С потерями
Размер потока : 338 Мбайт (6%)
Default : Да
Forced : Нет

pb.wtf



Скачать Единство героев через торрент http://img10.lostpic.net/2018/10/14/621d8b94c3aaed9efc32dc822bfbc6bd.jpg Скачать фильм Единство героев через торрент бесплантно в хорошем качестве Описание: 30-летняя женщина возвращается в Поднебесную после многих лет изучения западной медицины. Цели и мечты у нее самые благородные - ... 10 10 4
Info! Золотая раздача, скачанное не засчитывается.
Торрент: Зарегистрирован [2018-10-14 09:00] · скачан: 145 раз
Статус: # сомнительно
Размер: 5.34 GB
Как cкачать? Как скачать Единство героев через торрент | qTorrent

% Раздел Тема Автор DL S | L
T Фильмы (мультфильмы) cо спонсором показа (Новинки AVI/MKV) [ 1.37 GB ] Единство героев / Huang fei hong zhi nan bei ying xiong / The Unity of Heroes [2018 HDRip] MVO [КОЛОБОК] bober100 Скачать
1 | 0

28-11-2019 20:33  

Отключить всю рекламу на сайте

14-10-2018 16:29 Единство героев Скачать торрент  

о, норм! Надеюсь как Однажды в Китае будет фильмецpb.wtf



    Дорогой пользователь! Огромная просьба, поблагодарите релизера, оцените раздачу и оставьте свои комментарий, если Вы скачали Единство героев через торрент бесплатно! Внесите свою лепту в развитие PiratBit!
    Комментировать посты могут только пользователи прошедшие не сложную регистрацию
    Показать сообщения:    

    Единство героев через торрент
    Скачать бесплатно Единство героев
    Единство героев скачать торрент
    Единство героев смотреть онлайн
    Cкачать фильм Единство героев бесплатно
    Единство героев скачать торрент в хорошем качестве
    Единство героев смотреть онлайн бесплатно в хорошем качестве


    Вы не можете начинать темы
    Вы не можете отвечать на сообщения
    Вы не можете редактировать свои сообщения
    Вы не можете удалять свои сообщения
    Вы не можете голосовать в опросах
    Вы не можете прикреплять файлы к сообщениям
    Вы можете скачивать файлы