Ссылка на приватное зеркало всего за 1$. Внимание количество ограничено!!!

OK

1+1

iTunes

мы

OK

1

WEB-DLRip

Джокер

Пифагор

Ведьмак / The Witcher сериал

iTunes

ПШазам

ОК

Оно 2

iTunes

30
pack

Вам бонус

ВАЖНО

!!Акция!!

Alien_RageХит недели

RePack

Resident Evil 21

ИГРА 18+

pack

RePack

jed

RePack

fifa19

RePack

Assassins Creed: Odyssey

RePack

NEED FOR SPEED™ PAYBACK

4 сезон

9 сезон

Бесстыжие 9 сезон

Все сериалы

все сериалы на PB.wtf

RePack

FAR CRY 5
  

На грани / Black Woods / Borderline (Пау Масо Коромина) [2017, Ужасы, триллер, драма, криминал, детектив, WEB-DL 720p] MVO [КОЛОБОК] pb.wtf

На грани через торрент pb.wtf

Размер: 3.17 GB | Добавлен: 1 год 3 мес. назад | Торрент скачан:60 раз
Скачать  

14-10-2018 09:35 На грани Скачать торрент  

На грани / Black Woods / BorderlineГод выпуска: 2017
Страна: Испания
Жанр: Ужасы, триллер, драма, криминал, детектив
Продолжительность: 01:37:13
Перевод: Любительский (многоголосый) | КОЛОБОК
Субтитры: Английские

Режиссер: Пау Масо Коромина

rating

В ролях:

Паула Ортис, Мирейа Валлес, Тксема Лоренте, Марианжелс Панует, Иона Кастаньер, Хорди Пуйолрас

Описание:

После смерти матери, две сестры отправлятся в лес, чтобы развеять её прах - как того и хотела усопшая. Но среди лесной тиши и покоя поджидают тёмные тайны прошлого...

Качество: WEB-DL 720p
Формат: MKV

Видео: h.264,4 289 Кбит/с, 1280x720
Аудио#1: Русский, (AC3, 2 ch, 384 Кбит/с)

Общее
Уникальный идентификатор : 245856628811879933673727349523163919033 (0xB8F643AC256132398735DC3CD5C032B9)
Полное имя : D:\Borderline.2O17.Pk.WEB-DL.72Op.mkv
Формат : Matroska
Версия формата : Version 2
Размер файла : 3,17 Гбайт
Продолжительность : 1 ч. 37 м.
Режим общего битрейта : Переменный
Общий поток : 4675 Кбит/сек
Дата кодирования : UTC 2018-10-13 04:48:11
Программа кодирования : mkvmerge v8.3.0 ('Over the Horizon') 64bit
Библиотека кодирования : libebml v1.3.1 + libmatroska v1.4.2

Видео
Идентификатор : 1
Формат : AVC
Формат/Информация : Advanced Video Codec
Профиль формата : High@L4.1
Параметр CABAC формата : Да
Параметр RefFrames формата : 4 кадра
Идентификатор кодека : V_MPEG4/ISO/AVC
Продолжительность : 1 ч. 37 м.
Вид битрейта : Переменный
Битрейт : 4289 Кбит/сек
Максимальный битрейт : 5000 Кбит/сек
Ширина : 1280 пикселей
Высота : 720 пикселей
Соотношение сторон : 16:9
Режим частоты кадров : Постоянный
Частота кадров : 23,976 (24000/1001) кадра/сек
Стандарт вещания : Component
Цветовое пространство : YUV
Субдискретизация насыщенности : 4:2:0
Битовая глубина : 8 бит
Тип развёртки : Прогрессивная
Бит/(Пиксели*Кадры) : 0.190
Размер потока : 2,85 Гбайт (90%)
Default : Да
Forced : Нет
Цветовой диапазон : Limited
Основные цвета : BT.709
Характеристики трансфера : BT.709
Коэффициенты матрицы : BT.709

Аудио
Идентификатор : 2
Формат : AC-3
Формат/Информация : Audio Coding 3
Расширение режима : CM (complete main)
Параметр Endianness формата : Big
Идентификатор кодека : A_AC3
Продолжительность : 1 ч. 37 м.
Вид битрейта : Постоянный
Битрейт : 384 Кбит/сек
Каналы : 2 канала
Расположение каналов : Front: L R
Частота : 48,0 КГц
Частота кадров : 31,250 кадров/сек (1536 spf)
Метод сжатия : С потерями
Размер потока : 267 Мбайт (8%)
Default : Да
Forced : Нет

pb.wtf



Скачать На грани через торрент http://img10.lostpic.net/2018/10/14/e8004735733ae6c602c24978fa96233b.jpg Скачать фильм На грани через торрент бесплантно в хорошем качестве Описание: После смерти матери, две сестры отправлятся в лес, чтобы развеять её прах - как того и хотела усопшая. Но среди лесной тиши и ... 10 10 3
Торрент: Зарегистрирован [2018-10-14 09:35] · скачан: 60 раз
Статус: T временная
Размер: 3.17 GB
Как cкачать? Как скачать На грани через торрент | qTorrent

% Раздел Тема Автор DL S | L
T Фильмы (мультфильмы) cо спонсором показа (Новинки AVI/MKV) [ 1.37 GB ] На грани / Black Woods / Borderline [2017 WEB-DLRip] MVO [КОЛОБОК] bober100 Скачать
1 | 0

28-11-2019 20:33  

Отключить всю рекламу на сайте

16-10-2018 10:47 На грани Скачать торрент  

На разок фильм посмотреть можно, оценка 3 из 5 автору спс.pb.wtf



    Дорогой пользователь! Огромная просьба, поблагодарите релизера, оцените раздачу и оставьте свои комментарий, если Вы скачали На грани через торрент бесплатно! Внесите свою лепту в развитие PiratBit!
    Комментировать посты могут только пользователи прошедшие не сложную регистрацию
    Показать сообщения:    

    На грани через торрент
    Скачать бесплатно На грани
    На грани скачать торрент
    На грани смотреть онлайн
    Cкачать фильм На грани бесплатно
    На грани скачать торрент в хорошем качестве
    На грани смотреть онлайн бесплатно в хорошем качестве


    Вы не можете начинать темы
    Вы не можете отвечать на сообщения
    Вы не можете редактировать свои сообщения
    Вы не можете удалять свои сообщения
    Вы не можете голосовать в опросах
    Вы не можете прикреплять файлы к сообщениям
    Вы можете скачивать файлы