Ссылка на приватное зеркало нашего сайта всего за 1$. Внимание количество ограничено!!!

2 сезон

iTunes

1 сезон

1

iTunes

iTunes

iTunes

1 сезон

RePack

30

ИГРА 18+

pack

ВАЖНО

!!Акция!!

Alien_RageХит недели

RePack

MK11
pack

Забери бонус

RePack

jed

!!Акция!!

Alien_Rage

RePack

fifa19

RePack

Assassins Creed: Odyssey

RePack

NEED FOR SPEED™ PAYBACK

4 сезон

9 сезон

Бесстыжие 9 сезон

Все сериалы

все сериалы на PB.wtf

RePack

FAR CRY 5
  

Этим пыльным летом / Серии: 1-4 из 4 (Наталья Хлопецкая) [2018, Детектив, WEB-DLRip] pb.wtf

Этим пыльным летом через торрент pb.wtf

Размер: 2.32 GB | Добавлен: 2 года назад | Торрент скачан:37 раз
Скачать  

14-10-2018 10:47 Этим пыльным летом Скачать торрент  

Этим пыльным летом
Год выпуска: 2018
Страна: Россия
Жанр: Детектив
Продолжительность: ~ 00:44:00
Субтитры: отсутствуют

Режиссер: Наталья Хлопецкая



В ролях:

Вадим Андреев, Ольга Виниченко, Сергей Жарков, Дмитрий Калязин, Вера Воронкова, Юлия Кокрятская, Евгения Розанова, Сергей Петров (II), Сергей Галахов

Описание:

Пожилой таксист Макарыч неожиданно становится главным подозреваемым по делу об убийстве политика Ремезова, кандидата на пост мэра их городка. У Макарыча двое взрослых детей, и каждый из них стремится доказать невиновность отца. Старший сын Влад – сотрудник местного ФСБ, его отстраняют от официального расследования, но остаться в стороне он не может. Младшая дочь Тина пытается докопаться до правды со своей стороны: она участвует в боях без правил и вращается в околокриминальных кругах. Беда в том, что дети Макарыча давно не разговаривают друг с другом, а потому не могут объединить усилия. Мало того, со временем Влад начинает подозревать, что его отец не так чист, как ему казалось. А Тина начинает подозревать Влада…

Качество: WEB-DLRip
Формат: AVI

Видео: XviD, 1650 Кбит/с, 720x400
Аудио: AC3, 2 ch, 192 Кбит/с
скриншот  скриншот  скриншот  скриншот  

General
Complete name : D:\Еtim.pylnym.letom.2018.WEB-DLRip.25Kuzmich\Еtim.pylnym.letom.(01.seriya.iz.04).WEB-DLRip.25Kuzmich.avi
Format : AVI
Format/Info : Audio Video Interleave
File size : 605 MiB
Duration : 45 min 41 s
Overall bit rate : 1 851 kb/s
Writing application : VirtualDubMod 1.5.10.3 | www.virtualdub-fr.org || (build 2550/release)
Writing library : VirtualDubMod build 2550/release

Video
ID : 0
Format : MPEG-4 Visual
Format profile : Advanced Simple@L5
Format settings : BVOP1
Format settings, BVOP : 1
Format settings, QPel : No
Format settings, GMC : No warppoints
Format settings, Matrix : Default (MPEG)
Codec ID : XVID
Codec ID/Hint : XviD
Duration : 45 min 41 s
Bit rate : 1 650 kb/s
Width : 720 pixels
Height : 400 pixels
Display aspect ratio : 16:9
Frame rate : 25.000 FPS
Color space : YUV
Chroma subsampling : 4:2:0
Bit depth : 8 bits
Scan type : Progressive
Compression mode : Lossy
Bits/(Pixel*Frame) : 0.229
Stream size : 539 MiB (89%)
Writing library : XviD 1.2.1 (UTC 2008-12-04)

Audio
ID : 1
Format : AC-3
Format/Info : Audio Coding 3
Codec ID : 2000
Duration : 45 min 41 s
Bit rate mode : Constant
Bit rate : 192 kb/s
Channel(s) : 2 channels
Channel positions : Front: L R
Sampling rate : 48.0 kHz
Frame rate : 31.250 FPS (1536 SPF)
Bit depth : 16 bits
Compression mode : Lossy
Stream size : 62.7 MiB (10%)
Alignment : Split accross interleaves
Interleave, duration : 40 ms (1.00 video frame)
Interleave, preload duratio : 500 ms
Service kind : Complete Main

pb.wtf



Скачать Этим пыльным летом через торрент http://img10.lostpic.net/2018/10/14/1a0b50b65b19010deb45e417af0f0755.jpg Скачать фильм Этим пыльным летом через торрент бесплантно в хорошем качестве Описание: Пожилой таксист Макарыч неожиданно становится главным подозреваемым по делу об убийстве политика Ремезова, кандидата на пост мэра ... 10 10 4
Торрент: Зарегистрирован [2018-10-14 10:47] · скачан: 37 раз
Статус: √ проверено
Размер: 2.32 GB
Как cкачать? Как скачать Этим пыльным летом через торрент | qTorrent

% Раздел Тема Автор DL S | L
Наши сериалы [ 2.24 GB ] Этим пыльным летом / Серии: 1-4 из 4 [2018 WEB-DLRip-AVC] bober100 Скачать
1 | 0
Наши сериалы [ 4.09 GB ] Этим пыльным летом / Серии: 1-4 из 4 [2018 WEB-DL Оригинал] Бумер Скачать
1 | 0
Наши сериалы [ 6.47 GB ] Этим пыльным летом / Серии: 1-4 из 4 [2018 WEB-DL 1080p] bober100 Скачать
1 | 0
Наши сериалы [ 2.34 GB ] Этим пыльным летом / Серии: 1-4 из 4 [2018 SATRip-AVC] aleksan55 Скачать
1 | 0
Наши сериалы [ 2.39 GB ] Этим пыльным летом / Серия 1-4 из 4 / [2018 SATRip] oleg8 Скачать
1 | 0

28-11-2019 20:33  

Отключить всю рекламу на сайте

    Дорогой пользователь! Огромная просьба, поблагодарите релизера, оцените раздачу и оставьте свои комментарий, если Вы скачали Этим пыльным летом через торрент бесплатно! Внесите свою лепту в развитие PiratBit!
    Комментировать посты могут только пользователи прошедшие не сложную регистрацию
    Показать сообщения:    

    Этим пыльным летом через торрент
    Скачать бесплатно Этим пыльным летом
    Этим пыльным летом скачать торрент
    Этим пыльным летом смотреть онлайн
    Cкачать фильм Этим пыльным летом бесплатно
    Этим пыльным летом скачать торрент в хорошем качестве
    Этим пыльным летом смотреть онлайн бесплатно в хорошем качестве


    Вы не можете начинать темы
    Вы не можете отвечать на сообщения
    Вы не можете редактировать свои сообщения
    Вы не можете удалять свои сообщения
    Вы не можете голосовать в опросах
    Вы не можете прикреплять файлы к сообщениям
    Вы можете скачивать файлы