Ссылка на приватное зеркало нашего сайта всего за 1$. Внимание количество ограничено!!!

2 сезон

iTunes

iTunes

1

iTunes

iTunes

iTunes

WEBRip

iTunes

30
pack

Новость дня

ВАЖНО

!!Акция!!

Alien_RageХит недели

RePack

Horizon Zero Dawn

ИГРА 18+

pack

RePack

jed

!!Акция!!

Alien_Rage

RePack

fifa19

RePack

Assassins Creed: Odyssey

RePack

NEED FOR SPEED™ PAYBACK

4 сезон

9 сезон

Бесстыжие 9 сезон

Все сериалы

все сериалы на PB.wtf

RePack

FAR CRY 5
  

911 кошмар / Dispatch / 911:Nightmare (Крэйг Мосс) [2016, Триллер, WEB-DL 720p] MVO [КОЛОБОК] pb.wtf

911 кошмар через торрент pb.wtf

Размер: 2.88 GB | Добавлен: 1 год 11 мес. назад | Торрент скачан:61 раз
Скачать  

14-10-2018 15:01 911 кошмар Скачать торрент  

911 кошмар / Dispatch / 911:NightmareГод выпуска: 2016
Страна: США
Жанр: Триллер
Продолжительность: 01:28:23
Перевод: Любительский (многоголосый) | КОЛОБОК
Субтитры: отсутствуют

Режиссер: Крэйг Мосс

rating

В ролях:

Фиона Губелманн, Джон Ли Амес, Скотт Бэйли, Скотт Бродерик, Рут Кадиенте, Чейз Кортезе, Коул Эдвардс, Дрю Фуллер, Барбара Керфорд, Хезер Мазур

Описание:

Оператора службы спасения увольняют, после того как она принимает сообщение об убийстве за розыгрыш. Чувствуя себя виноватой, она решает начать самостоятельные поиски убийцы

Качество: WEB-DL 720p
Формат: MKV

Видео: h.264,4 279 Кбит/с, 1280x720
Аудио#1: Русский, (AC3, 2 ch, 384 Кбит/с)
скриншот  скриншот  скриншот  

Общее
Уникальный идентификатор : 214493742229160116211432739920262634909 (0xA15DFDFA8BD3E27C90DA63FDAB4E9D9D)
Полное имя : D:\911.Nightmare.2O16.Pk.WEB_DL.72Op.mkv
Формат : Matroska
Версия формата : Version 2
Размер файла : 2,88 Гбайт
Продолжительность : 1 ч. 28 м.
Режим общего битрейта : Переменный
Общий поток : 4664 Кбит/сек
Дата кодирования : UTC 2018-10-13 07:49:43
Программа кодирования : mkvmerge v8.3.0 ('Over the Horizon') 64bit
Библиотека кодирования : libebml v1.3.1 + libmatroska v1.4.2

Видео
Идентификатор : 1
Формат : AVC
Формат/Информация : Advanced Video Codec
Профиль формата : High@L4.1
Параметр CABAC формата : Да
Параметр RefFrames формата : 4 кадра
Идентификатор кодека : V_MPEG4/ISO/AVC
Продолжительность : 1 ч. 28 м.
Вид битрейта : Переменный
Битрейт : 4279 Кбит/сек
Максимальный битрейт : 5000 Кбит/сек
Ширина : 1280 пикселей
Высота : 720 пикселей
Соотношение сторон : 16:9
Режим частоты кадров : Постоянный
Частота кадров : 23,976 (24000/1001) кадра/сек
Стандарт вещания : Component
Цветовое пространство : YUV
Субдискретизация насыщенности : 4:2:0
Битовая глубина : 8 бит
Тип развёртки : Прогрессивная
Бит/(Пиксели*Кадры) : 0.190
Размер потока : 2,59 Гбайт (90%)
Default : Да
Forced : Нет
Цветовой диапазон : Limited
Основные цвета : BT.709
Характеристики трансфера : BT.709
Коэффициенты матрицы : BT.709

Аудио
Идентификатор : 2
Формат : AC-3
Формат/Информация : Audio Coding 3
Расширение режима : CM (complete main)
Параметр Endianness формата : Big
Идентификатор кодека : A_AC3
Продолжительность : 1 ч. 28 м.
Вид битрейта : Постоянный
Битрейт : 384 Кбит/сек
Каналы : 2 канала
Расположение каналов : Front: L R
Частота : 48,0 КГц
Частота кадров : 31,250 кадров/сек (1536 spf)
Метод сжатия : С потерями
Размер потока : 243 Мбайт (8%)
Default : Да
Forced : Нет

pb.wtf



Скачать 911 кошмар через торрент http://img10.lostpic.net/2018/10/14/3b82b2b8574397f06c80e2220df6ed0e.jpg Скачать фильм 911 кошмар через торрент бесплантно в хорошем качестве Описание: Оператора службы спасения увольняют, после того как она принимает сообщение об убийстве за розыгрыш. Чувствуя себя виноватой, она ... 8 10 5
Торрент: Зарегистрирован [2018-10-14 15:01] · скачан: 61 раз
Статус: T временная
Размер: 2.88 GB
Как cкачать? Как скачать 911 кошмар через торрент | qTorrent

% Раздел Тема Автор DL S | L
T Фильмы (мультфильмы) cо спонсором показа (Новинки AVI/MKV) [ 1.37 GB ] 911 кошмар / Dispatch / 911:Nightmare [2016 WEB-DLRip] MVO [КОЛОБОК] bober100 Скачать
1 | 0

28-11-2019 20:33  

Отключить всю рекламу на сайте

16-10-2018 22:06 911 кошмар Скачать торрент  

Как фильм кто глянул?pb.wtf



    Дорогой пользователь! Огромная просьба, поблагодарите релизера, оцените раздачу и оставьте свои комментарий, если Вы скачали 911 кошмар через торрент бесплатно! Внесите свою лепту в развитие PiratBit!
    Комментировать посты могут только пользователи прошедшие не сложную регистрацию
    Показать сообщения:    

    911 кошмар через торрент
    Скачать бесплатно 911 кошмар
    911 кошмар скачать торрент
    911 кошмар смотреть онлайн
    Cкачать фильм 911 кошмар бесплатно
    911 кошмар скачать торрент в хорошем качестве
    911 кошмар смотреть онлайн бесплатно в хорошем качестве


    Вы не можете начинать темы
    Вы не можете отвечать на сообщения
    Вы не можете редактировать свои сообщения
    Вы не можете удалять свои сообщения
    Вы не можете голосовать в опросах
    Вы не можете прикреплять файлы к сообщениям
    Вы можете скачивать файлы