2 сезон

iTunes

MVO

1

2 сезон

iTunes

iTunes

1 сезон

RePack

30

Новинка

ВАЖНО

ИГРА 18+

pack

RePack

MK11
pack

Легкие деньги

RePack

jed

RePack

fifa19

RePack

RDR2

RePack

NEED FOR SPEED™ PAYBACK

4 сезон

9 сезон

Бесстыжие 9 сезон

Все сериалы

все сериалы на PB.wtf

RePack

FAR CRY 5

Anonymous, доброй ночи, мы не успеваем собрать деньги на оплату серверов за декабрь и январь, помогите нам пожалуйста в это трудное время. В качестве благодарности мы отключим Вам всю рекламу на сайте (укажите свой ник в строку Ваше имя)!

×
  
Magnet ссылка

Углерод / Carbone (Оливье Маршаль) [2017, триллер, BDRip-AVC] MVO [HDRezka Studio] pb.wtf

Углерод через торрент pb.wtf

Раздают: 1 [ 0 KB/s ]
Размер: 1.8 GB | Добавлен: 2 года 3 мес. назад | Торрент скачан:364 раза
Скачать  

14-10-2018 17:15 Углерод Скачать торрент  

Углерод / Carbone
Год выпуска: 2017
Страна: Франция, Бельгия
Жанр: триллер
Продолжительность: 01:43:46
Перевод: Профессиональный (многоголосый, закадровый) | HDRezka Studio
Субтитры: Английские (полные)

Режиссер: Оливье Маршаль

rating

В ролях:

Бенуа Мажимель, Идир Чендер, Лаура Смет, Микаэль Юн, Дани, Патрик Каталифо, Жерар Депардье, Мусса Мааскри, Фридерик Эпо

Описание:

Боясь потерять свой семейный бизнес, обычный парень Антуан Рока придумывает аферу, которая в будущем станет мошенничеством века. Ввязавшись в криминал, он сталкивается с предательством друзей, убийствами и подтасовкой.

Качество: BDRip-AVC
Формат: MKV

Видео: 1024x428 (2.40:1), 24,000 fps, x264 ~1 841 kbps avg, 0.175 bit/pixel
Аудио#1: 48 kHz, AC3 Dolby Digital, 2 (L,R) ch, ~192.00 kbps avg | RUS (HDRezka Studio)
Аудио#2: 48 kHz, AC3 Dolby Digital, 3/2 (L,C,R,l,r) + LFE ch, ~448.00 kbps avg | FRE
скриншот  скриншот  скриншот  скриншот  скриншот  

Общее
Уникальный идентификатор : 181691481043624497882302618718437675160 (0x88B081A34FF420CF391F371E92049098)
Полное имя : F:\OlLanDGroup\Carbone.2017.BDRip(AVC).OlLanDGroup.mkv
Формат : Matroska
Версия формата : Version 4 / Version 2
Размер файла : 1,80 Гбайт
Продолжительность : 1 ч. 43 м.
Общий поток : 2482 Кбит/сек
Название фильма : Carbone.2017 #TorpedoUK#
Дата кодирования : UTC 2018-10-14 16:39:32
Программа кодирования : mkvmerge v25.0.0 ('Prog Noir') 64-bit
Библиотека кодирования : libebml v1.3.6 + libmatroska v1.4.9

Видео
Идентификатор : 1
Формат : AVC
Формат/Информация : Advanced Video Codec
Профиль формата : High@L4.1
Параметр CABAC формата : Да
Параметр ReFrames формата : 10 кадров
Идентификатор кодека : V_MPEG4/ISO/AVC
Продолжительность : 1 ч. 43 м.
Битрейт : 1841 Кбит/сек
Ширина : 1024 пикселя
Высота : 428 пикселей
Соотношение сторон : 2,40:1
Режим частоты кадров : Постоянный
Частота кадров : 24,000 кадра/сек
Цветовое пространство : YUV
Субдискретизация насыщенности : 4:2:0
Битовая глубина : 8 бит
Тип развёртки : Прогрессивная
Бит/(Пиксели*Кадры) : 0.175
Размер потока : 1,33 Гбайт (74%)
Библиотека кодирования : x264 core 146 r2538 121396c
Настройки программы : cabac=1 / ref=10 / deblock=1:-3:-3 / analyse=0x3:0x113 / me=umh / subme=11 / psy=1 / psy_rd=1.00:0.03 / mixed_ref=1 / me_range=48 / chroma_me=1 / trellis=2 / 8x8dct=1 / cqm=0 / deadzone=21,11 / fast_pskip=1 / chroma_qp_offset=-3 / threads=6 / lookahead_threads=1 / sliced_threads=0 / nr=0 / decimate=1 / interlaced=0 / bluray_compat=0 / constrained_intra=0 / bframes=10 / b_pyramid=2 / b_adapt=2 / b_bias=0 / direct=3 / weightb=1 / open_gop=0 / weightp=2 / keyint=240 / keyint_min=24 / scenecut=40 / intra_refresh=0 / rc_lookahead=40 / rc=2pass / mbtree=0 / bitrate=1841 / ratetol=1.0 / qcomp=0.60 / qpmin=0 / qpmax=69 / qpstep=4 / cplxblur=20.0 / qblur=0.5 / vbv_maxrate=50000 / vbv_bufsize=62500 / nal_hrd=none / filler=0 / ip_ratio=1.40 / pb_ratio=1.30 / aq=1:1.00
Язык : English
Default : Да
Forced : Нет

Аудио #1
Идентификатор : 2
Формат : AC-3
Формат/Информация : Audio Coding 3
Расширение режима : CM (complete main)
Параметр Endianness формата : Big
Идентификатор кодека : A_AC3
Продолжительность : 1 ч. 43 м.
Вид битрейта : Постоянный
Битрейт : 192 Кбит/сек
Каналы : 2 канала
Расположение каналов : Front: L R
Частота : 48,0 КГц
Частота кадров : 31,250 кадров/сек (1536 spf)
Битовая глубина : 16 бит
Метод сжатия : С потерями
Размер потока : 143 Мбайт (8%)
Заголовок : MVO [HDRezka Studio]
Язык : Russian
Default : Да
Forced : Нет

Аудио #2
Идентификатор : 3
Формат : AC-3
Формат/Информация : Audio Coding 3
Расширение режима : CM (complete main)
Параметр Endianness формата : Big
Идентификатор кодека : A_AC3
Продолжительность : 1 ч. 43 м.
Вид битрейта : Постоянный
Битрейт : 448 Кбит/сек
Каналы : 6 каналов
Расположение каналов : Front: L C R, Side: L R, LFE
Частота : 48,0 КГц
Частота кадров : 31,250 кадров/сек (1536 spf)
Битовая глубина : 16 бит
Метод сжатия : С потерями
Размер потока : 333 Мбайт (18%)
Заголовок : [Original]
Язык : French
Default : Нет
Forced : Нет

Текст
Идентификатор : 4
Формат : UTF-8
Идентификатор кодека : S_TEXT/UTF8
Идентификатор кодека/Информация : UTF-8 Plain Text
Продолжительность : 1 ч. 37 м.
Битрейт : 34 бит/сек
Count of elements : 568
Размер потока : 24,6 Кбайт (0%)
Заголовок : Full
Язык : English
Default : Нет
Forced : Нет

Меню
00:00:00.000 : en:Chapter 1
00:12:40.416 : en:Chapter 2
00:19:00.875 : en:Chapter 3
00:26:20.791 : en:Chapter 4
00:32:54.250 : en:Chapter 5
00:40:51.333 : en:Chapter 6
00:49:00.416 : en:Chapter 7
00:56:46.125 : en:Chapter 8
01:06:02.833 : en:Chapter 9
01:15:08.375 : en:Chapter 10
01:22:33.958 : en:Chapter 11
01:30:07.833 : en:Chapter 12

pb.wtf



Скачать Углерод через торрент http://img10.lostpic.net/2018/10/14/acbe25f7f478914be3e2cc95d437c121.jpg Скачать фильм Углерод через торрент бесплантно в хорошем качестве Описание: Боясь потерять свой семейный бизнес, обычный парень Антуан Рока придумывает аферу, которая в будущем станет мошенничеством века. ... 9.3 10 8
Торрент: Зарегистрирован [2018-10-14 17:15] · скачан: 364 раз
Статус: T временная
Размер: 1.8 GB
Как cкачать? Как скачать Углерод через торрент | UTorrent

% Раздел Тема Автор DL S | L
T Фильмы [HD 720p, 1080p] (Хороший звук DUB, MVO) [ 6.69 GB ] Углерод / Carbone [2017 BDRip 1080p] MVO [HDRezka Studio] bober100 Скачать
1 | 0
T Фильмы [HD 720p, 1080p] (Хороший звук DUB, MVO) [ 3.8 GB ] Углерод / Carbone [2017 BDRip 720p] MVO [HDRezka Studio] bober100 Скачать
1 | 0
T Фильмы 2017 [DVDrip, WEB-DLRip, HDrip] (DUB, MVO) [ 1.46 GB ] Углерод / Carbone [2017 BDRip] MVO [HDRezka Studio] bober100 Скачать
1 | 0

28-11-2019 20:33  

Отключить всю рекламу на сайте

17-10-2018 15:40 Углерод Скачать торрент  

как фильм ?pb.wtf



    Дорогой пользователь! Огромная просьба, поблагодарите релизера, оцените раздачу и оставьте свои комментарий, если Вы скачали Углерод через торрент бесплатно! Внесите свою лепту в развитие PiratBit!
    Комментировать посты могут только пользователи прошедшие не сложную регистрацию
    Показать сообщения:    

    Углерод через торрент
    Скачать бесплатно Углерод
    Углерод скачать торрент
    Углерод смотреть онлайн
    Cкачать фильм Углерод бесплатно
    Углерод скачать торрент в хорошем качестве
    Углерод смотреть онлайн бесплатно в хорошем качестве


    Вы не можете начинать темы
    Вы не можете отвечать на сообщения
    Вы не можете редактировать свои сообщения
    Вы не можете удалять свои сообщения
    Вы не можете голосовать в опросах
    Вы не можете прикреплять файлы к сообщениям
    Вы можете скачивать файлы