Ссылка на приватное зеркало нашего сайта всего за 1$. Внимание количество ограничено!!!

2 сезон

iTunes

1 сезон

1

iTunes

iTunes

iTunes

1 сезон

RePack

30

ИГРА 18+

pack

ВАЖНО

!!Акция!!

Alien_RageХит недели

RePack

MK11
pack

Забери бонус

RePack

jed

!!Акция!!

Alien_Rage

RePack

fifa19

RePack

Assassins Creed: Odyssey

RePack

NEED FOR SPEED™ PAYBACK

4 сезон

9 сезон

Бесстыжие 9 сезон

Все сериалы

все сериалы на PB.wtf

RePack

FAR CRY 5
  

Третий должен уйти / Серии: 1-2 из 2 (Максим Кубринский) [2018, Мелодрама, HDTVRip] pb.wtf

Третий должен уйти через торрент pb.wtf

Размер: 2.74 GB | Добавлен: 2 года назад | Торрент скачан:23 раза
Скачать  

14-10-2018 20:27 Третий должен уйти Скачать торрент  

Третий должен уйтиГод выпуска: 2018
Страна: Россия
Жанр: Мелодрама
Продолжительность: ~ 01:30:00
Субтитры: отсутствуют

Режиссер: Максим Кубринский



В ролях:

Глафира Тарханова, Анатолий Руденко, Дмитрий Ратомский, Алла Подчуфарова, Артём Федотов, Екатерина Виноградова, Светлана Чернова, Андрей Харыбин, Екатерина Седик, Никита Тезов

Описание:

Лиза Андреева (Глафира Тарханова) привыкла во всем поддерживать своего любимого мужа Илью (Анатолий Руденко) и уверена, что за ним она "как за каменной стеной". Она радуется его успехам в ресторанном бизнесе и строит большие планы.
Но чем лучше идут дела Ильи, тем больше у Лизы появляется причин для ревности. Она старается не реагировать на знаки внимания, которые он оказывает другим женщинам, и уговаривает себя, что муж не мог разлюбить ее. Но однажды Илью обвиняют в изнасиловании, и он оказывается в тюрьме…
Теперь Лизе придется решить, сможет ли она поверить человеку, с которым была счастлива двенадцать лет...

Качество: HDTVRip
Формат: AVI

Видео: XviD, ~ 2000 Кбит/с, 720x400
Аудио: AC3, 2 ch, 192 Кбит/с
скриншот  скриншот  скриншот  скриншот  

Общее
Полное имя : D:\Третий должен уйти.2018.HDTVRiip.Files-x\1.Третий должен уйти.2018.HDTVRiip.Files-x.avi
Формат : AVI
Формат/Информация : Audio Video Interleave
Размер файла : 1,37 Гбайт
Продолжительность : 1 ч. 29 м.
Общий поток : 2193 Кбит/сек
Программа кодирования : VirtualDubMod 1.5.10.3 | www.virtualdub-fr.org || (build 2550/release)
Библиотека кодирования : VirtualDubMod build 2550/release

Видео
Идентификатор : 0
Формат : MPEG-4 Visual
Профиль формата : Advanced Simple@L5
Параметр BVOP формата : 1
Параметр QPel формата : Нет
Параметр GMC формата : Без точки перехода
Параметр матрицы формата : Выборочная
Идентификатор кодека : XVID
Идентификатор кодека/Подсказка : XviD
Продолжительность : 1 ч. 29 м.
Битрейт : 2000 Кбит/сек
Ширина : 720 пикселей
Высота : 400 пикселей
Соотношение сторон : 16:9
Частота кадров : 25,000 кадров/сек
Цветовое пространство : YUV
Субдискретизация насыщенности : 4:2:0
Битовая глубина : 8 бит
Тип развёртки : Прогрессивная
Метод сжатия : С потерями
Бит/(Пиксели*Кадры) : 0.276
Размер потока : 1,24 Гбайт (91%)
Библиотека кодирования : XviD 73

Аудио
Идентификатор : 1
Формат : AC-3
Формат/Информация : Audio Coding 3
Расширение режима : CM (complete main)
Параметр Endianness формата : Big
Идентификатор кодека : 2000
Продолжительность : 1 ч. 29 м.
Вид битрейта : Постоянный
Битрейт : 192 Кбит/сек
Каналы : 2 канала
Расположение каналов : Front: L R
Частота : 48,0 КГц
Частота кадров : 31,250 кадров/сек (1536 spf)
Метод сжатия : С потерями
Размер потока : 123 Мбайт (9%)
Выравнивание : Разделение по промежуткам
Продолжительность промежутка : 40 мс. (1,00 видеокадр)
Время предзагрузки промежутка : 500 мс.

pb.wtf



Скачать Третий должен уйти через торрент http://i77.fastpic.ru/big/2018/1013/c4/17da2cd7236c20e14144343c1b95f5c4.jpg Скачать фильм Третий должен уйти через торрент бесплантно в хорошем качестве Описание: Лиза Андреева (Глафира Тарханова) привыкла во всем поддерживать своего любимого мужа Илью (Анатолий Руденко) и уверена, что за ... 10 10 2
Торрент: Зарегистрирован [2018-10-14 20:27] · скачан: 23 раз
Статус: √ проверено
Размер: 2.74 GB
Как cкачать? Как скачать Третий должен уйти через торрент | qTorrent

% Раздел Тема Автор DL S | L
Наши сериалы [ 2.74 GB ] Третий должен уйти / Серии: 1-2 из 2 [2018 Мело HDTVRip-AVC] bober100 Скачать
1 | 0
Наши сериалы [ 9.6 GB ] Третий должен уйти / Серии: 1-2 из 2 [2018 Мело HDTV 1080i] bober100 Скачать
1 | 0

28-11-2019 20:33  

Отключить всю рекламу на сайте

    Дорогой пользователь! Огромная просьба, поблагодарите релизера, оцените раздачу и оставьте свои комментарий, если Вы скачали Третий должен уйти через торрент бесплатно! Внесите свою лепту в развитие PiratBit!
    Комментировать посты могут только пользователи прошедшие не сложную регистрацию
    Показать сообщения:    

    Третий должен уйти через торрент
    Скачать бесплатно Третий должен уйти
    Третий должен уйти скачать торрент
    Третий должен уйти смотреть онлайн
    Cкачать фильм Третий должен уйти бесплатно
    Третий должен уйти скачать торрент в хорошем качестве
    Третий должен уйти смотреть онлайн бесплатно в хорошем качестве


    Вы не можете начинать темы
    Вы не можете отвечать на сообщения
    Вы не можете редактировать свои сообщения
    Вы не можете удалять свои сообщения
    Вы не можете голосовать в опросах
    Вы не можете прикреплять файлы к сообщениям
    Вы можете скачивать файлы