Всегда рабочее зеркало без VPN и Proxy просто перед .vidak.icu напиши любое слово или цифру, Пример http://7kfg.vidak.icu

MVO

2 сезон

1 сезон

1

1 сезон

iTunes

2 сезон

13

1 сезон

Deluxe

pack

Рекомендуем

Пиратка

30

ВАЖНО

RePack

MK11

RePack

jed

RePack

fifa19

RePack

RDR2

RePack

NEED FOR SPEED™ PAYBACK

Кинопоиск HD

6 сезон

 Острые козырьки 6 сезон

Все сериалы

все сериалы на PB.wtf

RePack

FAR CRY 5

Anonymous, нам критически не хватает 5601 руб. на оплату серверов и переферии за Апрель, помоги нам пожалуйста, вся надежда только на тебя. В благодарность мы отключим тебе всю рекламу на сайте!

×
  
Magnet ссылка

Зловещие мертвецы / The Evil Dead (Сэм Рэйми) [1981, ужасы, UHD BDRemux 2160p] MVO + 2xDVO + 5xAVO pb.wtf

Зловещие мертвецы через торрент pb.wtf

Размер: 47.48 GB | Добавлен: 3 года 7 мес. назад | Торрент скачан:25 раз
Смотреть онлайн Зловещие мертвецы | Скачать    Ребята, помогите собрать деньги на оплату серверов!!!

15-10-2018 03:09 Зловещие мертвецы Скачать торрент  

Зловещие мертвецы / The Evil Dead«The Ultimate Experience In Grueling Terror»
Год выпуска: 1981
Страна: США
Жанр: ужасы
Продолжительность: 01:25:26
Перевод: Профессиональный многоголосый, профессиональный двухголосый, авторский
Субтитры: Русские (Full), английские (SDH)
Режиссер: Сэм Рэйми
В ролях:

Брюс Кэмпбелл (Ashley «Ash» J. Williams), Эллен Сэндвайсс (Cheryl), Ричард ДеМэннинкор (Scott), Бетси Бейкер (Linda), Тереза Тилли (Shelly), Филип А. Гиллис (Fake Shemp), Дороти Тейперт (Fake Shemp), Шерил Гаттридж (Fake Shemp), Барбара Кэри (Fake Shemp), Дэвид Хортон (Fake Shemp), Уэндал Томас (Fake Shemp), Дон Лонг (Fake Shemp)
Описание:
Молодые люди снимают на выходные загородный дом. Находится он в непролазной глуши, выглядит мрачно, а кругом - ни души. Аренда стоит копейки, но не потому, что он того и гляди развалится...
Рейтинг:

MPAA: NC-17 - Лицам до 17 лет просмотр запрещен
Качество: UHD BDRemux 2160p
Формат: MKV
Видео: HEVC, HDR, 68.3 Мбит/с, 3840x2160, 23.976 кадр/с
Аудио #1: Russian / Dolby Digital Audio / 5.1 / 48 kHz / 384 kbps / DN -4dB |MVO|
Аудио #2: Russian / Dolby Digital Audio / 5.1 / 48 kHz / 448 kbps / DN -4dB |DVO|
Аудио #3: Russian / DTS-HD Master Audio / 5.1 / 48 kHz / ~1472 kbps / 16-bit (DTS Core: 5.1 / 48 kHz / 768 kbps / 16-bit) |П. Гланц и И. Королёва|
Аудио #4: Russian / DTS-HD Master Audio / 5.1 / 48 kHz / ~1472 kbps / 16-bit (DTS Core: 5.1 / 48 kHz / 768 kbps / 16-bit) |Гаврилов|
Аудио #5: Russian / DTS-HD Master Audio / 5.1 / 48 kHz / ~1472 kbps / 16-bit (DTS Core: 5.1 / 48 kHz / 768 kbps / 16-bit) |Гоблин|
Аудио #6: Russian / DTS-HD Master Audio / 5.1 / 48 kHz / ~1472 kbps / 16-bit (DTS Core: 5.1 / 48 kHz / 768 kbps / 16-bit) |Костюкевич|
Аудио #7: Russian / Dolby Surround encoded / 2.0 / 48 kHz / 192 kbps / DN -4dB |Володарский|
Аудио #8: Russian / Dolby Surround encoded / 2.0 / 48 kHz / 192 kbps / DN -4dB |Дольский|
Аудио #9: English / TrueHD / 5.1 / 48 kHz / 3256 kbps / |Оригинал|
Аудио #10: English / Dolby Digital Audio / 3/2 / 48 kHz / 640 kbps |Оригинал|
Навигация по главам: есть
Complete name : D:\Movies\The.Evil.Dead.1981.2160p.BluRay.REMUX.HEVC.TrueHD.5.1-SpaceHD13.mkv
Format : Matroska
Format version : Version 4 / Version 2
File size : 47.5 GiB
Duration : 1 h 25 min
Overall bit rate mode : Variable
Overall bit rate : 79.3 Mb/s
Movie name : / UHD 2160 || Release by SpaceHD13
Encoded date : UTC 2018-10-14 21:51:20
Writing application : mkvmerge v27.0.0 ('Metropolis') 64-bit
Writing library : libebml v1.3.6 + libmatroska v1.4.9
Cover : Yes
Attachments : cover.jpg

Video
ID : 1
Format : HEVC
Format/Info : High Efficiency Video Coding
Commercial name : HDR10
Format profile : Main 10@L5.1@High
Codec ID : V_MPEGH/ISO/HEVC
Duration : 1 h 25 min
Bit rate : 68.3 Mb/s
Width : 3 840 pixels
Height : 2 160 pixels
Display aspect ratio : 16:9
Frame rate mode : Constant
Frame rate : 23.976 (24000/1001) FPS
Color space : YUV
Chroma subsampling : 4:2:0 (Type 2)
Bit depth : 10 bits
Bits/(Pixel*Frame) : 0.343
Stream size : 40.9 GiB (86%)
Title : The.Evil.Dead.1981.2160p.BluRay.REMUX.HEVC.TrueHD.5.1-SpaceHD13
Default : Yes
Forced : No
Color range : Limited
Color primaries : BT.2020
Transfer characteristics : PQ
Matrix coefficients : BT.2020 non-constant
Mastering display color primaries : Display P3
Mastering display luminance : min: 0.0001 cd/m2, max: 1000 cd/m2
Maximum Content Light Level : 1000 cd/m2
Maximum Frame-Average Light Level : 544 cd/m2

Audio #1
ID : 2
Format : AC-3
Format/Info : Audio Coding 3
Codec ID : A_AC3
Duration : 1 h 25 min
Bit rate : 384 kb/s
Channel(s) : 6 channels
Sampling rate : 48.0 kHz
Frame rate : 31.250 FPS (1536 SPF)
Compression mode : Lossy
Stream size : 235 MiB (0%)
Title : MVO
Language : Russian
Default : Yes
Forced : No

Audio #2
ID : 3
Format : AC-3
Format/Info : Audio Coding 3
Codec ID : A_AC3
Duration : 1 h 25 min
Bit rate : 448 kb/s
Channel(s) : 6 channels
Sampling rate : 48.0 kHz
Frame rate : 31.250 FPS (1536 SPF)
Compression mode : Lossy
Stream size : 274 MiB (1%)
Title : DVO
Language : Russian
Default : No
Forced : No

Audio #3
ID : 4
Format : DTS
Format/Info : Digital Theater Systems
Codec ID : A_DTS
Duration : 1 h 25 min
Bit rate : 1 472 kb/s
Channel(s) : 6 channels
Sampling rate : 48.0 kHz
Frame rate : 93.750 FPS (512 SPF)
Bit depth : 16 bits
Compression mode : Lossy
Stream size : 889 MiB (2%)
Title : Glanz and Koroleva - DTSHD-MA
Language : Russian
Default : No
Forced : No

Audio #4
ID : 5
Format : DTS
Format/Info : Digital Theater Systems
Codec ID : A_DTS
Duration : 1 h 25 min
Bit rate : 1 443 kb/s
Channel(s) : 6 channels
Sampling rate : 48.0 kHz
Frame rate : 93.750 FPS (512 SPF)
Bit depth : 16 bits
Compression mode : Lossy
Stream size : 882 MiB (2%)
Title : Goblin - DTSHD-MA
Language : Russian
Default : No
Forced : No

Audio #5
ID : 6
Format : DTS
Format/Info : Digital Theater Systems
Codec ID : A_DTS
Duration : 1 h 25 min
Bit rate : 1 472 kb/s
Channel(s) : 6 channels
Sampling rate : 48.0 kHz
Frame rate : 93.750 FPS (512 SPF)
Bit depth : 16 bits
Compression mode : Lossy
Stream size : 890 MiB (2%)
Title : Gavrilov - DTSHD-MA
Language : Russian
Default : No
Forced : No

Audio #6
ID : 7
Format : DTS
Format/Info : Digital Theater Systems
Codec ID : A_DTS
Duration : 1 h 25 min
Bit rate : 1 472 kb/s
Channel(s) : 6 channels
Sampling rate : 48.0 kHz
Frame rate : 93.750 FPS (512 SPF)
Bit depth : 16 bits
Compression mode : Lossy
Stream size : 891 MiB (2%)
Title : Kostukevich - DTSHD-MA
Language : Russian
Default : No
Forced : No

Audio #7
ID : 8
Format : AC-3
Format/Info : Audio Coding 3
Codec ID : A_AC3
Duration : 1 h 25 min
Bit rate : 192 kb/s
Channel(s) : 2 channels
Sampling rate : 48.0 kHz
Frame rate : 31.250 FPS (1536 SPF)
Compression mode : Lossy
Stream size : 117 MiB (0%)
Title : Volodarskiy
Language : Russian
Default : No
Forced : No

Audio #8
ID : 9
Format : AC-3
Format/Info : Audio Coding 3
Codec ID : A_AC3
Duration : 1 h 25 min
Bit rate : 192 kb/s
Channel(s) : 2 channels
Sampling rate : 48.0 kHz
Frame rate : 31.250 FPS (1536 SPF)
Compression mode : Lossy
Stream size : 117 MiB (0%)
Title : Dolskiy
Language : Russian
Default : No
Forced : No

Audio #9
ID : 10
Format : TrueHD
Codec ID : A_TRUEHD
Duration : 1 h 25 min
Bit rate mode : Variable
Bit rate : 3 256 kb/s
Maximum bit rate : 4 011 kb/s
Channel(s) : 6 channels
Channel positions : Front: L C R, Side: L R, LFE
Sampling rate : 48.0 kHz
Frame rate : 1 200.000 FPS (40 SPF)
Compression mode : Lossless
Stream size : 1.95 GiB (4%)
Title : TrueHD
Language : English
Default : No
Forced : No

Audio #10
ID : 11
Format : AC-3
Format/Info : Audio Coding 3
Codec ID : A_AC3
Duration : 1 h 25 min
Bit rate mode : Constant
Bit rate : 640 kb/s
Channel(s) : 6 channels
Channel positions : Front: L C R, Side: L R, LFE
Sampling rate : 48.0 kHz
Frame rate : 31.250 FPS (1536 SPF)
Bit depth : 16 bits
Compression mode : Lossy
Stream size : 393 MiB (1%)
Title : Original
Language : English
Service kind : Complete Main
Default : No
Forced : No

Text #1
ID : 12
Format : PGS
Muxing mode : zlib
Codec ID : S_HDMV/PGS
Codec ID/Info : Picture based subtitle format used on BDs/HD-DVDs
Duration : 1 h 24 min
Bit rate : 15.1 kb/s
Count of elements : 702
Stream size : 9.10 MiB (0%)
Title : Full
Language : Russian
Default : Yes
Forced : No

Text #2
ID : 13
Format : PGS
Muxing mode : zlib
Codec ID : S_HDMV/PGS
Codec ID/Info : Picture based subtitle format used on BDs/HD-DVDs
Duration : 1 h 20 min
Bit rate : 12.2 kb/s
Count of elements : 796
Stream size : 7.04 MiB (0%)
Language : English
Default : No
Forced : No

Text #3
ID : 14
Format : PGS
Muxing mode : zlib
Codec ID : S_HDMV/PGS
Codec ID/Info : Picture based subtitle format used on BDs/HD-DVDs
Duration : 1 h 23 min
Bit rate : 16.2 kb/s
Count of elements : 1230
Stream size : 9.73 MiB (0%)
Title : SDH
Language : English
Default : No
Forced : No

Menu
00:00:00.000 : :Chapter 1
00:03:24.454 : :Chapter 2
00:10:17.241 : :Chapter 3
00:16:36.954 : :Chapter 4
00:22:05.032 : :Chapter 5
00:28:33.586 : :Chapter 6
00:32:17.560 : :Chapter 7
00:38:40.568 : :Chapter 8
00:43:09.628 : :Chapter 9
00:49:04.232 : :Chapter 10
00:55:42.630 : :Chapter 11
01:01:02.450 : :Chapter 12
01:03:43.945 : :Chapter 13
01:09:13.399 : :Chapter 14
01:14:32.176 : :Chapter 15
01:20:32.994 : :Chapter 16
pb.wtf



Скачать Зловещие мертвецы через торрент https://b.radikal.ru/b14/1810/8f/b1e9bfc37406.jpg Скачать, смотреть онлайн Зловещие мертвецы бесплантно в хорошем качестве Описание: Молодые люди снимают на выходные загородный дом. Находится он в непролазной глуши, выглядит мрачно, а кругом - ни души. Аренда ... 10 10 2
Торрент: Зарегистрирован [2018-10-15 03:09] · скачан: 25 раз
Статус: √ проверено
Размер: 47.48 GB
Как cкачать? Как скачать Зловещие мертвецы через торрент | UTorrent

% Раздел Тема Автор DL S | L
Фильмы (Blu-ray, BD-Remux, HDDVD) [ 21.6 GB ] Зловещие мертвецы / The Evil Dead [1981 BDRemux 1080p] [Remastered] [Open Matte] MVO + 2xDVO + 6xAVO sheker187 Скачать
1 | 0

28-11-2019 20:33  

Отключить всю рекламу на сайте

    Дорогой пользователь! Огромная просьба, поблагодарите релизера, оцените раздачу и оставьте свои комментарий, если Вы скачали Зловещие мертвецы через торрент бесплатно!
    Комментировать посты могут только пользователи прошедшие не сложную регистрацию
    Показать сообщения:    

    Зловещие мертвецы через торрент
    Скачать бесплатно Зловещие мертвецы
    Зловещие мертвецы скачать торрент
    Зловещие мертвецы смотреть онлайн
    Cкачать фильм Зловещие мертвецы бесплатно
    Зловещие мертвецы скачать торрент в хорошем качестве
    Зловещие мертвецы смотреть онлайн бесплатно в хорошем качестве


    Вы не можете начинать темы
    Вы не можете отвечать на сообщения
    Вы не можете редактировать свои сообщения
    Вы не можете удалять свои сообщения
    Вы не можете голосовать в опросах
    Вы не можете прикреплять файлы к сообщениям
    Вы можете скачивать файлы