Ссылка на приватное зеркало всего за 1$. Внимание количество ограничено!!!

OK

1+1

iTunes

мы

OK

1

WEB-DLRip

Джокер

Пифагор

Ведьмак / The Witcher сериал

Лицензия

ПШазам

ОК

Оно 2

iTunes

30
pack

Вам бонус

ВАЖНО

!!Акция!!

Alien_RageХит недели

RePack

Resident Evil 21

ИГРА 18+

pack

RePack

jed

!!Акция!!

Alien_Rage

RePack

fifa19

RePack

Assassins Creed: Odyssey

RePack

NEED FOR SPEED™ PAYBACK

4 сезон

9 сезон

Бесстыжие 9 сезон

Все сериалы

все сериалы на PB.wtf

RePack

FAR CRY 5
  

Аризона / Arizona (Джонатан Уотсон) [2018, триллер, комедия, криминал, UHD BDRip 2160p] MVO [HDRezka Studio] pb.wtf

Аризона через торрент pb.wtf

Размер: 12.38 GB | Добавлен: 1 год 3 мес. назад | Торрент скачан:30 раз
Скачать  

15-10-2018 04:39 Аризона Скачать торрент  

Аризона / Arizona«The heat is on. But it's a dry heat»
Год выпуска: 2018
Страна: США
Жанр: триллер, комедия, криминал
Продолжительность: 01:23:37
Перевод: Профессиональный многоголосый [HDRezka Studio]
Субтитры: английские, испанские, французские
Режиссер: Джонатан Уотсон
В ролях:

Дэнни МакБрайд (Sonny), Розмари ДеУитт (Cassie), Лолли Соренсон (Morgan), Люк Уилсон (Scott), Элизабет Гиллис (Kelsey), Кэйтлин Олсон (Vicki), Дэвид Алан Грир (Coburn), Трэвис Хаммер (Shane), Кевин Уиггинс (Mr. Boychuk), Одри Уолтерс (Mrs. Boychuk), Анжелика Мидфандер (Woman), Brett Cole (Hanging Man)
Описание:
Кесси, агент по продаже недвижимости и мать-одиночка, пытается справиться с жилищным кризисом 2009 года. Ситуация только ухудшается, когда в ее жизнь врывается недовольный клиент Сонни, чьи действия приносят только разрушение и смерть.
Рейтинг:

Качество: UHD BDRip 2160p
Формат: MKV
Видео: HEVC, HDR, 20500 Кбит/с, 3840x1612, 23.976 кадр/с
Аудио 1: Русский ( АС3, 2ch, 192 Кбит/с, 48.0 KHz) Профессиональный (многоголосый) HDRezka Studio
Аудио 2: Английский (AC3, 6 ch, 448 Кбит/с, 48.0 KHz)
Навигация по главам: есть
Общее
Уникальный идентификатор : 231161828889239588661418840807122962557 (0xADE8261971175F35B469D59539B4887D)
Полное имя : D:\Передел_2\Arizona.2018.BDRip.2160p.10bit.HEVC.HDR.4K.x265.Master5.mkv
Формат : Matroska
Версия формата : Version 4
Размер файла : 12,4 Гбайт
Продолжительность : 1 ч. 23 м.
Общий поток : 21,2 Мбит/сек
Название фильма : Arizona.2018.BDRip.2160p.10bit.HEVC.HDR.4K.x265.Master5
Дата кодирования : UTC 2018-10-14 15:19:49
Программа кодирования : mkvmerge v7.9.0 ('Birds') 64bit
Библиотека кодирования : libebml v1.3.1 + libmatroska v1.4.2

Видео
Идентификатор : 1
Формат : HEVC
Формат/Информация : High Efficiency Video Coding
Коммерческое название : HDR10
Профиль формата : Main 10@L5.1@High
Идентификатор кодека : V_MPEGH/ISO/HEVC
Продолжительность : 1 ч. 23 м.
Битрейт : 20,5 Мбит/сек
Ширина : 3840 пикселей
Высота : 1612 пикселей
Соотношение сторон : 2,40:1
Режим частоты кадров : Постоянный
Частота кадров : 23,976 (24000/1001) кадра/сек
Цветовое пространство : YUV
Субдискретизация насыщенности : 4:2:0 (Type 2)
Битовая глубина : 10 бит
Бит/(Пиксели*Кадры) : 0.138
Размер потока : 12,0 Гбайт (97%)
Заголовок : Arizona.2018.BDRip.2160p.10bit.HEVC.HDR.4K.x265.Master5
Библиотека кодирования : x265 2.8+66-88ee12651e30:[Windows][GCC 6.3.0][64 bit] 10bit
Настройки программы : cpuid=1111039 / frame-threads=4 / numa-pools=20 / wpp / no-pmode / no-pme / no-psnr / no-ssim / log-level=2 / input-csp=1 / input-res=3840x1612 / interlace=0 / total-frames=120305 / level-idc=51 / high-tier=1 / uhd-bd=0 / ref=4 / no-allow-non-conformance / repeat-headers / annexb / aud / hrd / info / hash=0 / no-temporal-layers / no-open-gop / min-keyint=1 / keyint=24 / gop-lookahead=0 / bframes=4 / b-adapt=2 / b-pyramid / bframe-bias=0 / rc-lookahead=25 / lookahead-slices=4 / scenecut=40 / radl=0 / no-intra-refresh / ctu=64 / min-cu-size=8 / rect / no-amp / max-tu-size=32 / tu-inter-depth=1 / tu-intra-depth=1 / limit-tu=0 / rdoq-level=2 / dynamic-rd=0.00 / no-ssim-rd / signhide / no-tskip / nr-intra=0 / nr-inter=0 / no-constrained-intra / no-strong-intra-smoothing / max-merge=3 / limit-refs=3 / limit-modes / me=3 / subme=3 / merange=57 / temporal-mvp / weightp / no-weightb / no-analyze-src-pics / deblock=-3:-3 / no-sao / no-sao-non-deblock / rd=4 / no-early-skip / rskip / no-fast-intra / no-tskip-fast / no-cu-lossless / no-b-intra / no-splitrd-skip / rdpenalty=0 / psy-rd=2.00 / psy-rdoq=1.00 / no-rd-refine / no-lossless / cbqpoffs=0 / crqpoffs=0 / rc=crf / crf=17.0 / qcomp=0.60 / qpstep=4 / stats-write=0 / stats-read=0 / vbv-maxrate=160000 / vbv-bufsize=160000 / vbv-init=0.9 / crf-max=0.0 / crf-min=0.0 / ipratio=1.40 / pbratio=1.30 / aq-mode=1 / aq-strength=1.00 / cutree / zone-count=0 / no-strict-cbr / qg-size=32 / no-rc-grain / qpmax=69 / qpmin=0 / no-const-vbv / sar=1 / overscan=0 / videoformat=5 / range=0 / colorprim=9 / transfer=16 / colormatrix=9 / chromaloc=1 / chromaloc-top=2 / chromaloc-bottom=2 / display-window=0 / master-display=G(13250,34500)B(7500,3000)R(34000,16000)WP(15634,16450)L(10000000,0) / max-cll=1000,193 / min-luma=0 / max-luma=1023 / log2-max-poc-lsb=8 / vui-timing-info / vui-hrd-info / slices=1 / no-opt-qp-pps / no-opt-ref-list-length-pps / no-multi-pass-opt-rps / scenecut-bias=0.05 / no-opt-cu-delta-qp / no-aq-motion / hdr / hdr-opt / no-dhdr10-opt / no-idr-recovery-sei / analysis-reuse-level=5 / scale-factor=0 / refine-intra=0 / refine-inter=0 / refine-mv=0 / no-limit-sao / ctu-info=0 / no-lowpass-dct / refine-mv-type=0 / copy-pic=1 / max-ausize-factor=1.0 / no-dynamic-refine / no-single-sei
Default : Да
Forced : Нет
Цветовой диапазон : Limited
Основные цвета : BT.2020
Характеристики трансфера : PQ
Коэффициенты матрицы : BT.2020 non-constant
MasteringDisplay_ColorPrimaries : R: x=0.680000 y=0.320000, G: x=0.265000 y=0.690000, B: x=0.150000 y=0.060000, White point: x=0.312680 y=0.329000
MasteringDisplay_Luminance : min: 0.0000 cd/m2, max: 1000 cd/m2
MaxCLL : 1000 cd/m2
MaxFALL : 193 cd/m2

Аудио #1
Идентификатор : 2
Формат : AC-3
Формат/Информация : Audio Coding 3
Коммерческое название : Dolby Digital
Идентификатор кодека : A_AC3
Продолжительность : 1 ч. 23 м.
Вид битрейта : Постоянный
Битрейт : 192 Кбит/сек
Каналы : 2 канала
Channel layout : L R
Частота : 48,0 КГц
Частота кадров : 31,250 кадров/сек (1536 SPF)
Битовая глубина : 16 бит
Метод сжатия : С потерями
Размер потока : 115 Мбайт (1%)
Язык : Russian
ServiceKind/String : Complete Main
Default : Да
Forced : Нет

Аудио #2
Идентификатор : 3
Формат : AC-3
Формат/Информация : Audio Coding 3
Коммерческое название : Dolby Digital
Идентификатор кодека : A_AC3
Продолжительность : 1 ч. 23 м.
Вид битрейта : Постоянный
Битрейт : 448 Кбит/сек
Каналы : 6 каналов
Channel layout : L R C LFE Ls Rs
Частота : 48,0 КГц
Частота кадров : 31,250 кадров/сек (1536 SPF)
Битовая глубина : 16 бит
Метод сжатия : С потерями
Размер потока : 268 Мбайт (2%)
Язык : English
ServiceKind/String : Complete Main
Default : Нет
Forced : Нет

Текст #1
Идентификатор : 4
Формат : PGS
Режим смешивания : zlib
Идентификатор кодека : S_HDMV/PGS
Идентификатор кодека/Информация : Picture based subtitle format used on BDs/HD-DVDs
Продолжительность : 1 ч. 20 м.
Битрейт : 17,5 Кбит/сек
ElementCount : 2902
Размер потока : 10,1 Мбайт (0%)
Язык : English
Default : Нет
Forced : Нет

Текст #2
Идентификатор : 5
Формат : PGS
Режим смешивания : zlib
Идентификатор кодека : S_HDMV/PGS
Идентификатор кодека/Информация : Picture based subtitle format used on BDs/HD-DVDs
Продолжительность : 1 ч. 17 м.
Битрейт : 15,8 Кбит/сек
ElementCount : 2627
Размер потока : 8,71 Мбайт (0%)
Язык : Spanish
Default : Нет
Forced : Нет

Текст #3
Идентификатор : 6
Формат : PGS
Режим смешивания : zlib
Идентификатор кодека : S_HDMV/PGS
Идентификатор кодека/Информация : Picture based subtitle format used on BDs/HD-DVDs
Продолжительность : 1 ч. 17 м.
Битрейт : 15,6 Кбит/сек
ElementCount : 2561
Размер потока : 8,65 Мбайт (0%)
Язык : French
Default : Нет
Forced : Нет

Меню
00:00:00.000 : :00:00:00.000
00:07:19.564 : :00:07:19.564
00:10:11.361 : :00:10:11.361
00:27:37.406 : :00:27:37.406
00:39:35.790 : :00:39:35.790
00:51:15.406 : :00:51:15.406
01:00:36.967 : :01:00:36.967
01:09:39.008 : :01:09:39.008
01:13:22.231 : :01:13:22.231
01:18:50.184 : :01:18:50.184
pb.wtf



Скачать Аризона через торрент https://c.radikal.ru/c02/1810/5d/e4163879b83d.jpg Скачать фильм Аризона через торрент бесплантно в хорошем качестве Описание: Кесси, агент по продаже недвижимости и мать-одиночка, пытается справиться с жилищным кризисом 2009 года. Ситуация только ... 10 10 2
Торрент: Зарегистрирован [2018-10-15 04:39] · скачан: 30 раз
Статус: T временная
Размер: 12.38 GB
Как cкачать? Как скачать Аризона через торрент | qTorrent

% Раздел Тема Автор DL S | L
T Ultra HD (UHD: 2K, 4K, 8K) — видео сверхвысокой чёткости [ 20.38 GB ] Аризона / Arizona [2018 UHD BDRip 2160p] [SDR] MVO [HDRezka Studio] bober100 Скачать
1 | 0
T Ultra HD (UHD: 2K, 4K, 8K) — видео сверхвысокой чёткости [ 32.26 GB ] Аризона / Arizona [2018 UHD BDRemux 2160p] MVO [HDRezka Studio] bober100 Скачать
1 | 0
T Фильмы [HD 720p, 1080p] (Хороший звук DUB, MVO) [ 6.67 GB ] Аризона / Arizona [2018 BDRip 1080p HDRezka Studio] Бумер Скачать
2 | 0
T Фильмы 2018 [DVDrip, WEB-DLRip, HDrip] (DUB, MVO) [ 1.46 GB ] Аризона / Arizona [2018 WEB-DLRip-AVC] MVO [HDRezka Studio] bober100 Скачать
1 | 0
T Фильмы (WEB-DL 720p, 1080p) [ 3.05 GB ] Аризона / Arizona [2018 WEB-DL 1080p] MVO [HDRezka Studio] bober100 Скачать
2 | 0
Фильмы с авторской озвучкой [ 1.71 GB ] Воспитание Аризоны / Raising Arizona [1987 BDRip] 2x[AVO] killermax2013 Скачать
1 | 1

28-11-2019 20:33  

Отключить всю рекламу на сайте

01-07-2019 10:54 Аризона Скачать торрент  

рассинхрон со звукомpb.wtf



    Дорогой пользователь! Огромная просьба, поблагодарите релизера, оцените раздачу и оставьте свои комментарий, если Вы скачали Аризона через торрент бесплатно! Внесите свою лепту в развитие PiratBit!
    Комментировать посты могут только пользователи прошедшие не сложную регистрацию
    Показать сообщения:    

    Аризона через торрент
    Скачать бесплатно Аризона
    Аризона скачать торрент
    Аризона смотреть онлайн
    Cкачать фильм Аризона бесплатно
    Аризона скачать торрент в хорошем качестве
    Аризона смотреть онлайн бесплатно в хорошем качестве


    Вы не можете начинать темы
    Вы не можете отвечать на сообщения
    Вы не можете редактировать свои сообщения
    Вы не можете удалять свои сообщения
    Вы не можете голосовать в опросах
    Вы не можете прикреплять файлы к сообщениям
    Вы можете скачивать файлы