Ссылка на приватное зеркало нашего сайта всего за 1$. Внимание количество ограничено!!!

2 сезон

iTunes

iTunes

1

iTunes

iTunes

iTunes

WEBRip

iTunes

30
pack

Вам бонус

ВАЖНО

!!Акция!!

Alien_RageХит недели

RePack

Horizon Zero Dawn

ИГРА 18+

pack

RePack

jed

!!Акция!!

Alien_Rage

RePack

fifa19

RePack

Assassins Creed: Odyssey

RePack

NEED FOR SPEED™ PAYBACK

4 сезон

9 сезон

Бесстыжие 9 сезон

Все сериалы

все сериалы на PB.wtf

RePack

FAR CRY 5
  

Дьявольский кузнец / Errementari (Пол Уркийо Алихо) [2017, ужасы, фэнтези, WEB-DL 720p] MVO [@MUZOBOZ@] pb.wtf

Дьявольский кузнец через торрент pb.wtf

Размер: 4.03 GB | Добавлен: 1 год 11 мес. назад | Торрент скачан:234 раза
Скачать  

15-10-2018 06:54 Дьявольский кузнец Скачать торрент  

Дьявольский кузнец / ErrementariГод выпуска: 2017
Страна: Испания, Франция
Жанр: ужасы, фэнтези
Продолжительность: 01:41:57
Перевод: Любительский (многоголосый) | @MUZOBOZ@
Субтитры: отсутствуют

Режиссер: Пол Уркийо Алихо

rating

В ролях:

Кандидо Уранга, Энеко Сагардов, Ума Брачалья, Рамон Агирр, Горка Агинагальде, Хосеан Бенгоэчеа, Хосе Рамон Аргойтия, Иньиго де ла Иглесиа, Гоцон Санчес Сабино, Аитер Урсалай

Описание:

Где-то в баскской глуши рядом с деревней живет дьявольский кузнец. Все жители уверены, что он - зло во плоти, и подходить к его жилищу нельзя ни в коем случае. Но дети - есть дети, и вредные мальчишки, издеваясь над местной сиротой, отрывают её кукле голову и забрасывают через забор к дому кузнеца. Девочка пробирается на запретную территорию. Как раз в это время приезжий чиновник убеждает местных жителей, что кузнец в своём доме прячет золото.

Качество: WEB-DL 720p
Формат: MKV

Видео: h.264,5 270 kb/s, 1280x676
Аудио#1: Русский, (AC3, 2 ch, 384 Кбит/с)
скриншот  скриншот  скриншот  

Общее
Уникальный идентификатор : 181666729120179616144815090502248492299 (0x88ABBD461DD7200FB0CDE6C4B290ED0B)
Полное имя : C:\Users\Бобер\Desktop\Errementari.The.Blacksmith.and.the.Devil.2017.P.WEB-DL.72Op_KOSHARA.mkv
Формат : Matroska
Версия формата : Version 2
Размер файла : 4,03 Гбайт
Продолжительность : 1 ч. 41 м.
Режим общего битрейта : Переменный
Общий поток : 5656 Кбит/сек
Дата кодирования : UTC 2018-10-14 05:51:38
Программа кодирования : mkvmerge v8.3.0 ('Over the Horizon') 64bit
Библиотека кодирования : libebml v1.3.1 + libmatroska v1.4.2

Видео
Идентификатор : 1
Формат : AVC
Формат/Информация : Advanced Video Codec
Профиль формата : High@L4.1
Параметр CABAC формата : Да
Параметр RefFrames формата : 4 кадра
Идентификатор кодека : V_MPEG4/ISO/AVC
Продолжительность : 1 ч. 41 м.
Вид битрейта : Переменный
Битрейт : 5270 Кбит/сек
Максимальный битрейт : 5700 Кбит/сек
Ширина : 1280 пикселей
Высота : 676 пикселей
Соотношение сторон : 1,893
Режим частоты кадров : Постоянный
Частота кадров : 23,976 (24000/1001) кадра/сек
Стандарт вещания : Component
Цветовое пространство : YUV
Субдискретизация насыщенности : 4:2:0
Битовая глубина : 8 бит
Тип развёртки : Прогрессивная
Бит/(Пиксели*Кадры) : 0.249
Размер потока : 3,67 Гбайт (91%)
Default : Да
Forced : Нет
Цветовой диапазон : Limited
Основные цвета : BT.709
Характеристики трансфера : BT.709
Коэффициенты матрицы : BT.709

Аудио
Идентификатор : 2
Формат : AC-3
Формат/Информация : Audio Coding 3
Расширение режима : CM (complete main)
Параметр Endianness формата : Big
Идентификатор кодека : A_AC3
Продолжительность : 1 ч. 41 м.
Вид битрейта : Постоянный
Битрейт : 384 Кбит/сек
Каналы : 2 канала
Расположение каналов : Front: L R
Частота : 48,0 КГц
Частота кадров : 31,250 кадров/сек (1536 spf)
Метод сжатия : С потерями
Размер потока : 280 Мбайт (7%)
Default : Да
Forced : Нет

pb.wtf



Скачать Дьявольский кузнец через торрент http://img10.lostpic.net/2018/10/15/fd2f8928ee4706ba829fee73a58dff69.jpg Скачать фильм Дьявольский кузнец через торрент бесплантно в хорошем качестве Описание: Где-то в баскской глуши рядом с деревней живет дьявольский кузнец. Все жители уверены, что он - зло во плоти, и подходить к его ... 10 10 9
Торрент: Зарегистрирован [2018-10-15 06:54] · скачан: 234 раз
Статус: T временная
Размер: 4.03 GB
Как cкачать? Как скачать Дьявольский кузнец через торрент | qTorrent

% Раздел Тема Автор DL S | L
T Фильмы (мультфильмы) cо спонсором показа (Новинки AVI/MKV) [ 1.37 GB ] Дьявольский кузнец / Errementari [2017 WEB-DLRip] MVO [@MUZOBOZ@] bober100 Скачать
1 | 0

28-11-2019 20:33  

Отключить всю рекламу на сайте

15-10-2018 11:35 Дьявольский кузнец Скачать торрент  

Забираю спс автору комент позже.pb.wtf



15-10-2018 20:08 Дьявольский кузнец Скачать торрент  

Фильм отличный, очень понравился. На одном дыхании. Перевод не очень но смотреть можно.pb.wtf



16-10-2018 10:46 Дьявольский кузнец Скачать торрент  

Хороший фильм рекомендую к просмотру, оценка 4 из 5 автору спс.pb.wtf



16-10-2018 11:54 Дьявольский кузнец Скачать торрент  

Ща зазырю! Скажу своё мнение!)pb.wtf



    Дорогой пользователь! Огромная просьба, поблагодарите релизера, оцените раздачу и оставьте свои комментарий, если Вы скачали Дьявольский кузнец через торрент бесплатно! Внесите свою лепту в развитие PiratBit!
    Комментировать посты могут только пользователи прошедшие не сложную регистрацию
    Показать сообщения:    

    Дьявольский кузнец через торрент
    Скачать бесплатно Дьявольский кузнец
    Дьявольский кузнец скачать торрент
    Дьявольский кузнец смотреть онлайн
    Cкачать фильм Дьявольский кузнец бесплатно
    Дьявольский кузнец скачать торрент в хорошем качестве
    Дьявольский кузнец смотреть онлайн бесплатно в хорошем качестве


    Вы не можете начинать темы
    Вы не можете отвечать на сообщения
    Вы не можете редактировать свои сообщения
    Вы не можете удалять свои сообщения
    Вы не можете голосовать в опросах
    Вы не можете прикреплять файлы к сообщениям
    Вы можете скачивать файлы