Ссылка на приватное зеркало нашего сайта всего за 1$. Внимание количество ограничено!!!

2 сезон

iTunes

1 сезон

1

iTunes

iTunes

iTunes

1 сезон

RePack

30

ИГРА 18+

pack

ВАЖНО

!!Акция!!

Alien_RageХит недели

RePack

MK11
pack

Забери бонус

RePack

jed

!!Акция!!

Alien_Rage

RePack

fifa19

RePack

Assassins Creed: Odyssey

RePack

NEED FOR SPEED™ PAYBACK

4 сезон

9 сезон

Бесстыжие 9 сезон

Все сериалы

все сериалы на PB.wtf

RePack

FAR CRY 5
  

Аризона / Arizona (Джонатан Уотсон) [2018, Триллер, комедия, криминал, UHD BDRip 2160p] [SDR] MVO [HDRezka Studio] pb.wtf

Аризона через торрент pb.wtf

Размер: 20.38 GB | Добавлен: 2 года назад | Торрент скачан:21 раз
Скачать  

15-10-2018 07:15 Аризона Скачать торрент  

Аризона / Arizona
Год выпуска: 2018
Страна: США
Жанр: Триллер, комедия, криминал
Продолжительность: 01:23:37
Перевод: Профессиональный (многоголосый) | HDRezka Studio
Субтитры: английские, испанские, французские

Режиссер: Джонатан Уотсон

rating

В ролях:

Элизабет Гиллис, Дэнни МакБрайд, Кэйтлин Олсон, Розмари ДеУитт, Люк Уилсон, Дэвид Алан Грир, Трэвис Хаммер, Каллен Мосс, Джейд Каммерман, Одри Уолтерс

Описание:

Кесси, агент по продаже недвижимости и мать-одиночка, пытается справиться с жилищным кризисом 2009 года. Ситуация только ухудшается, когда в ее жизнь врывается недовольный клиент Сонни, чьи действия приносят только разрушение и смерть.

Качество: UHD BDRip 2160p
Формат: MKV

Видео: HEVC, SDR,34200 Кбит/с, 3840x1608, 23.976 кадр/с
Аудио#1: 48 kHz, AC3 Dolby Digital, 2 (L,R) ch, ~192.00 kbps avg | RUS (HDRezka Studio)
Аудио#2: 48 kHz, AC3, 6 ch, 448 Кбит/с | ENG
скриншот  скриншот  скриншот  

Общее
Уникальный идентификатор : 229696552340892276605392117530077592766 (0xACCDF2634AE1DB3390E25F32A24E7CBE)
Полное имя : D:\Arizona.2018.BDRip.2160p.BDRip.x265.10bit.SDR.Master5.mkv
Формат : Matroska
Версия формата : Version 4 / Version 2
Размер файла : 20,4 Гбайт
Продолжительность : 1 ч. 23 м.
Общий поток : 34,9 Мбит/сек
Название фильма : Arizona.2018.BDRip.2160p.BDRip.x265.10bit.SDR.Master5
Дата кодирования : UTC 2018-10-14 22:33:20
Программа кодирования : mkvmerge v7.9.0 ('Birds') 64bit
Библиотека кодирования : libebml v1.3.1 + libmatroska v1.4.2
Обложка : Yes
Attachments : cover_land.jpg / small_cover.jpg / small_cover_land.jpg / cover.jpg

Видео
Идентификатор : 1
Формат : HEVC
Формат/Информация : High Efficiency Video Coding
Профиль формата : Main 10@L5.1@High
Идентификатор кодека : V_MPEGH/ISO/HEVC
Продолжительность : 1 ч. 23 м.
Битрейт : 34,2 Мбит/сек
Ширина : 3840 пикселей
Высота : 1608 пикселей
Соотношение сторон : 2,40:1
Режим частоты кадров : Постоянный
Частота кадров : 23,976 (24000/1001) кадра/сек
Цветовое пространство : YUV
Субдискретизация насыщенности : 4:2:0
Битовая глубина : 10 бит
Бит/(Пиксели*Кадры) : 0.227
Размер потока : 19,6 Гбайт (96%)
Заголовок : Arizona.2018.BDRip.2160p.BDRip.x265.10bit.SDR.Master5
Библиотека кодирования : x265 2.8+54-79c76e42cb28:[Windows][GCC 7.3.1][64 bit] 10bit
Настройки программы : cpuid=1111039 / frame-threads=16 / numa-pools=16,16 / wpp / no-pmode / no-pme / no-psnr / no-ssim / log-level=2 / input-csp=1 / input-res=3840x1608 / interlace=0 / total-frames=0 / level-idc=51 / high-tier=1 / uhd-bd=0 / ref=3 / no-allow-non-conformance / repeat-headers / annexb / aud / hrd / info / hash=0 / no-temporal-layers / no-open-gop / min-keyint=1 / keyint=24 / gop-lookahead=0 / bframes=4 / b-adapt=2 / b-pyramid / bframe-bias=0 / rc-lookahead=25 / lookahead-slices=4 / scenecut=40 / radl=0 / no-intra-refresh / ctu=64 / min-cu-size=8 / no-rect / no-amp / max-tu-size=32 / tu-inter-depth=1 / tu-intra-depth=1 / limit-tu=0 / rdoq-level=0 / dynamic-rd=0.00 / no-ssim-rd / signhide / no-tskip / nr-intra=0 / nr-inter=0 / no-constrained-intra / strong-intra-smoothing / max-merge=2 / limit-refs=3 / no-limit-modes / me=1 / subme=2 / merange=57 / temporal-mvp / weightp / no-weightb / no-analyze-src-pics / deblock=0:0 / no-sao / no-sao-non-deblock / rd=3 / no-early-skip / rskip / no-fast-intra / no-tskip-fast / no-cu-lossless / no-b-intra / no-splitrd-skip / rdpenalty=0 / psy-rd=2.00 / psy-rdoq=0.00 / no-rd-refine / no-lossless / cbqpoffs=0 / crqpoffs=0 / rc=crf / crf=16.0 / qcomp=0.60 / qpstep=4 / stats-write=0 / stats-read=0 / vbv-maxrate=160000 / vbv-bufsize=160000 / vbv-init=0.9 / crf-max=0.0 / crf-min=0.0 / ipratio=1.40 / pbratio=1.30 / aq-mode=1 / aq-strength=1.00 / cutree / zone-count=0 / no-strict-cbr / qg-size=32 / no-rc-grain / qpmax=69 / qpmin=0 / no-const-vbv / sar=1 / overscan=0 / videoformat=5 / range=0 / colorprim=2 / transfer=2 / colormatrix=2 / chromaloc=0 / display-window=0 / max-cll=0,0 / min-luma=0 / max-luma=1023 / log2-max-poc-lsb=8 / vui-timing-info / vui-hrd-info / slices=1 / opt-qp-pps / opt-ref-list-length-pps / no-multi-pass-opt-rps / scenecut-bias=0.05 / no-opt-cu-delta-qp / no-aq-motion / no-hdr / no-hdr-opt / no-dhdr10-opt / no-idr-recovery-sei / analysis-reuse-level=5 / scale-factor=0 / refine-intra=0 / refine-inter=0 / refine-mv=0 / no-limit-sao / ctu-info=0 / no-lowpass-dct / refine-mv-type=0 / copy-pic=1 / max-ausize-factor=1.0 / no-dynamic-refine / no-single-sei
Язык : English
Default : Да
Forced : Нет

Аудио #1
Идентификатор : 2
Формат : AC-3
Формат/Информация : Audio Coding 3
Расширение режима : CM (complete main)
Параметр Endianness формата : Big
Идентификатор кодека : A_AC3
Продолжительность : 1 ч. 23 м.
Вид битрейта : Постоянный
Битрейт : 192 Кбит/сек
Каналы : 2 канала
Расположение каналов : Front: L R
Частота : 48,0 КГц
Частота кадров : 31,250 кадров/сек (1536 spf)
Метод сжатия : С потерями
Размер потока : 115 Мбайт (1%)
Язык : Russian
Default : Да
Forced : Нет

Аудио #2
Идентификатор : 3
Формат : AC-3
Формат/Информация : Audio Coding 3
Расширение режима : CM (complete main)
Параметр Endianness формата : Big
Идентификатор кодека : A_AC3
Продолжительность : 1 ч. 23 м.
Вид битрейта : Постоянный
Битрейт : 448 Кбит/сек
Каналы : 6 каналов
Расположение каналов : Front: L C R, Side: L R, LFE
Частота : 48,0 КГц
Частота кадров : 31,250 кадров/сек (1536 spf)
Метод сжатия : С потерями
Размер потока : 268 Мбайт (1%)
Язык : English
Default : Нет
Forced : Нет

Текст #1
Идентификатор : 4
Формат : PGS
Режим смешивания : zlib
Идентификатор кодека : S_HDMV/PGS
Идентификатор кодека/Информация : Picture based subtitle format used on BDs/HD-DVDs
Язык : English
Default : Нет
Forced : Нет

Текст #2
Идентификатор : 5
Формат : PGS
Режим смешивания : zlib
Идентификатор кодека : S_HDMV/PGS
Идентификатор кодека/Информация : Picture based subtitle format used on BDs/HD-DVDs
Язык : Spanish
Default : Нет
Forced : Нет

Текст #3
Идентификатор : 6
Формат : PGS
Режим смешивания : zlib
Идентификатор кодека : S_HDMV/PGS
Идентификатор кодека/Информация : Picture based subtitle format used on BDs/HD-DVDs
Язык : French
Default : Нет
Forced : Нет

Меню
00:00:00.000 : :00:00:00.000
00:07:19.564 : :00:07:19.564
00:10:11.361 : :00:10:11.361
00:27:37.406 : :00:27:37.406
00:39:35.790 : :00:39:35.790
00:51:15.406 : :00:51:15.406
01:00:36.967 : :01:00:36.967
01:09:39.008 : :01:09:39.008
01:13:22.231 : :01:13:22.231
01:18:50.184 : :01:18:50.184

pb.wtf



Скачать Аризона через торрент http://img10.lostpic.net/2018/10/14/0598c380fc644d6b831af7b0d69b08c8.jpg Скачать фильм Аризона через торрент бесплантно в хорошем качестве Описание: Кесси, агент по продаже недвижимости и мать-одиночка, пытается справиться с жилищным кризисом 2009 года. Ситуация только ... 10 10 2
Торрент: Зарегистрирован [2018-10-15 07:15] · скачан: 21 раз
Статус: T временная
Размер: 20.38 GB
Как cкачать? Как скачать Аризона через торрент | qTorrent

% Раздел Тема Автор DL S | L
T Ultra HD (UHD: 2K, 4K, 8K) — видео сверхвысокой чёткости [ 12.38 GB ] Аризона / Arizona [2018 UHD BDRip 2160p] MVO [HDRezka Studio] sheker187 Скачать
1 | 0
T Ultra HD (UHD: 2K, 4K, 8K) — видео сверхвысокой чёткости [ 32.26 GB ] Аризона / Arizona [2018 UHD BDRemux 2160p] MVO [HDRezka Studio] bober100 Скачать
1 | 0
T Фильмы [HD 720p, 1080p] (Хороший звук DUB, MVO) [ 6.67 GB ] Аризона / Arizona [2018 BDRip 1080p HDRezka Studio] Бумер Скачать
1 | 0
T Фильмы 2018 [DVDrip, WEB-DLRip, HDrip] (DUB, MVO) [ 1.46 GB ] Аризона / Arizona [2018 WEB-DLRip-AVC] MVO [HDRezka Studio] bober100 Скачать
1 | 0
T Фильмы (WEB-DL 720p, 1080p) [ 3.05 GB ] Аризона / Arizona [2018 WEB-DL 1080p] MVO [HDRezka Studio] bober100 Скачать
1 | 0
Фильмы с авторской озвучкой [ 1.71 GB ] Воспитание Аризоны / Raising Arizona [1987 BDRip] 2x[AVO] killermax2013 Скачать
1 | 1

28-11-2019 20:33  

Отключить всю рекламу на сайте

01-07-2019 10:55 Аризона Скачать торрент  

рассинхрон со звуком, поправьтеpb.wtf



    Дорогой пользователь! Огромная просьба, поблагодарите релизера, оцените раздачу и оставьте свои комментарий, если Вы скачали Аризона через торрент бесплатно! Внесите свою лепту в развитие PiratBit!
    Комментировать посты могут только пользователи прошедшие не сложную регистрацию
    Показать сообщения:    

    Аризона через торрент
    Скачать бесплатно Аризона
    Аризона скачать торрент
    Аризона смотреть онлайн
    Cкачать фильм Аризона бесплатно
    Аризона скачать торрент в хорошем качестве
    Аризона смотреть онлайн бесплатно в хорошем качестве


    Вы не можете начинать темы
    Вы не можете отвечать на сообщения
    Вы не можете редактировать свои сообщения
    Вы не можете удалять свои сообщения
    Вы не можете голосовать в опросах
    Вы не можете прикреплять файлы к сообщениям
    Вы можете скачивать файлы