новый адрес пиратбит piratbit
Мега распродажа FORZA HORIZON 4 ULTIMATE+ВСЕ DLC+ОНЛАЙН всего за 499р. 349 руб. (супер цена). Внимание количество ограничено!!!

iTunes

1+1

iTunes

мы

iTunes

1

iTunes

Чернобыль

iTunes

Ральф против интернета

Лицензия

ПШазам

Лицензия

Игра престолов

Лицензия

30
pack

ВАЖНО

!!Акция!!

Alien_RageХит недели

RePack

Resident Evil 21

ИГРА 18+

pack

RePack

Metro:Exodus

!!Акция!!

Alien_Rage

RePack

fifa19

RePack

Assassins Creed: Odyssey

RePack

NEED FOR SPEED™ PAYBACK

3 сезон

9 сезон

Бесстыжие 9 сезон

Все сериалы

все сериалы на PB.wtf

RePack

FAR CRY 5
Ребята, катастрофически не хватает 1900р. для оплаты серверов за Октябрь (всвязи с блокировками трафик упал в 3 раза), 1-2р., выручайте.
  

Подпольный обком действует / Серии: 1-4 из 4 (Анатолий Буковский) [1978, Военный, DVDRip] pb.wtf

Подпольный обком действует через торрент pb.wtf

Размер: 4.37 GB | Добавлен: 1 год 1 мес. назад | Торрент скачан:28 раз
Скачать  

15-10-2018 07:56 Подпольный обком действует Скачать торрент  

Подпольный обком действует (4 серии) Год выпуска: 1978
Жанр: Военный
Продолжительность: 01:06:43 + 01:09:33 + 01:13:23 + 01:16:50
Перевод: не требуется [русский оригинал]

Режиссер: Анатолий Буковский

В ролях: Виктор Щербаков, Сергей Дворецкий, Николай Гринько, Анатолий Барчук, Виктор Мирошниченко, Николай Олейник, А. Гонтарь, Юрий Мажуга, Николай Мерзликин, Валентина Владимирова, Николай Сектименко, Нина Антонова, Виктор Демерташ, Леонид Яновский, Вацлав Дворжецкий, Нина Ильина, Александр Милютин, Дмитрий Миргородский, Александр Михайлов, Федор Панасенко, Сергей Подгорный, Виктор Лазарев

Описание: По мотивам одноименной документальной книги А.Ф.Федорова.
1-я серия — «Война»; 2 — «Большой отряд»; 3 — «Партизаны»; 4 — «Ковельский узел».


О партизанском движении на Черниговщине в годы Великой Отечественной войны.
В фильме использованы архивные материалы, кинохроника, а также фотодокументы военного корреспондента Я. Давидзона.






Качество: DVDRip
Формат: AVI
Видео кодек: DivX
Аудио кодек: MP3
Видео: 704x528 (1.33:1), 25 fps, DivX Codec 5.x or 6.x ~1982 kbps avg
Аудио: 48 kHz, MPEG Layer 3, 2 ch, ~192.00 kbps avg
General
Complete name : E:\Podpol`niy_obkom_DVDRip\01_Podpol`niy_obkom_DVDRip.avi
Format : AVI
Format/Info : Audio Video Interleave
File size : 1.02 GiB
Duration : 1 h 6 min
Overall bit rate : 2 184 kb/s
Writing application : VirtualDubModRus 1.5.10.2 (build 2542/release)
Writing library : VirtualDubMod build 2542/release

Video
ID : 0
Format : MPEG-4 Visual
Format settings : BVOP1
Format settings, BVOP : 1
Format settings, QPel : No
Format settings, GMC : No warppoints
Format settings, Matrix : Default (H.263)
Muxing mode : Packed bitstream
Codec ID : DX50
Codec ID/Hint : DivX 5
Duration : 1 h 6 min
Bit rate : 1 897 kb/s
Nominal bit rate : 4 854 kb/s
Width : 704 pixels
Height : 528 pixels
Display aspect ratio : 4:3
Frame rate : 25.000 FPS
Color space : YUV
Chroma subsampling : 4:2:0
Bit depth : 8 bits
Scan type : Progressive
Compression mode : Lossy
Bits/(Pixel*Frame) : 0.204
Stream size : 905 MiB (87%)
Writing library : DivX 6.8.3-6.8.4 (UTC 2008-06-07)

Audio
ID : 1
Format : MPEG Audio
Format version : Version 1
Format profile : Layer 3
Format settings : Joint stereo / MS Stereo
Mode : Joint stereo
Mode extension : MS Stereo
Codec ID : 55
Codec ID/Hint : MP3
Duration : 1 h 6 min
Bit rate mode : Constant
Bit rate : 192 kb/s
Channel(s) : 2 channels
Sampling rate : 48.0 kHz
Compression mode : Lossy
Stream size : 91.6 MiB (9%)
Alignment : Aligned on interleaves
Writing library : LAME3.97
Encoding settings : -m j -V 4 -q 1 -b 192
скриншот  скриншот  скриншот  
pb.wtf



Скачать Подпольный обком действует через торрент https://i79.fastpic.ru/big/2018/1015/21/125d3442a227e1046ee4f71432e67921.jpg Скачать фильм Подпольный обком действует через торрент бесплантно в хорошем качестве Описание: По мотивам одноименной документальной книги А.Ф.Федорова.1-я серия — «Война»; 2 — «Большой отряд»; 3 — «Партизаны»; 4 — ... 10 10 6
Торрент: Зарегистрирован [2018-10-15 07:56] · скачан: 28 раз
Статус: √ проверено
Размер: 4.37 GB
Как cкачать? Как скачать Подпольный обком действует через торрент | qTorrent


>> Регистрируемся здесь <<






Отзывы и комментарии о схеме читаем и пишем здесь: ---> Отзывы и комментарии о схеме

Новые благодарочки в телеграм довольных пользователей:
скриншот   скриншот   скриншот   скриншот   скриншот
    Дорогой пользователь! Огромная просьба, поблагодарите релизера, оцените раздачу и оставьте свои комментарий, если Вы скачали Подпольный обком действует через торрент бесплатно! Внесите свою лепту в развитие PiratBit!
    Комментировать посты могут только пользователи прошедшие не сложную регистрацию
    Показать сообщения:    

    Подпольный обком действует через торрент
    Скачать бесплатно Подпольный обком действует
    Подпольный обком действует скачать торрент
    Подпольный обком действует смотреть онлайн
    Cкачать фильм Подпольный обком действует бесплатно
    Подпольный обком действует скачать торрент в хорошем качестве
    Подпольный обком действует смотреть онлайн бесплатно в хорошем качестве


    Вы не можете начинать темы
    Вы не можете отвечать на сообщения
    Вы не можете редактировать свои сообщения
    Вы не можете удалять свои сообщения
    Вы не можете голосовать в опросах
    Вы не можете прикреплять файлы к сообщениям
    Вы можете скачивать файлы