Ссылка на приватное зеркало нашего сайта всего за 1$. Внимание количество ограничено!!!

2 сезон

iTunes

1 сезон

1

iTunes

iTunes

iTunes

1 сезон

RePack

30

ИГРА 18+

pack

ВАЖНО

!!Акция!!

Alien_RageХит недели

RePack

MK11
pack

Забери бонус

RePack

jed

!!Акция!!

Alien_Rage

RePack

fifa19

RePack

Assassins Creed: Odyssey

RePack

NEED FOR SPEED™ PAYBACK

4 сезон

9 сезон

Бесстыжие 9 сезон

Все сериалы

все сериалы на PB.wtf

RePack

FAR CRY 5
  

Светлана / Дочь Сталина / Сезон: 1 / Серии: 1-8 из 8 (Евгений Звездаков) [2018, Биография, драма, SATRip] pb.wtf

Светлана через торрент pb.wtf

Размер: 4.91 GB | Добавлен: 2 года назад | Торрент скачан:84 раза
Скачать  

15-10-2018 12:03 Светлана Скачать торрент  

Светлана / Дочь СталинаГод выпуска: 2018
Страна: Россия
Жанр: Биография, драма
Продолжительность: ~ 00:47:00 серия
Субтитры: отсутствуют

Режиссер: Евгений Звездаков



В ролях:

Виктория Романенко, Сергей Колтаков, Павел Трубинер, Сергей Колос, Сергей Лосев, Роберт Студеновский, Семён Стругачёв, Маша Полиенко, Алёна Савастова, Кирилл Иванов, Даниил Кокин, Илья Катунцев, Карен Галстян, Елизавета Александрова, Елизавета Нилова

Описание:

Драма «кремлевской принцессы» Светланы Аллилуевой, дочери всесильного вождя всех народов. Она была лишена материнской любви и ласки, зато в избытке хлебнула отцовской строгости. Она трижды меняла имя и вероисповедание, четырежды была замужем, родила троих детей, которые отреклись от нее, дважды эмигрировала из СССР. Несколько раз уезжала и возвращалась в США. Жила в Грузии, в Швейцарии, в Англии, во Франции. Написала несколько книг.
Но до конца жизни осталась для всех дочерью Сталина…

Качество: SATRip
Формат: AVI

Видео: XviD, ~ 1650 Кбит/с, 720x400
Аудио: МР3, 2 ch, 192 Кбит/с
скриншот  скриншот  скриншот  скриншот  

Общее
Полное имя : D:\Svetlana.2018.XviD.SATRip.25Kuzmich\Svetlana.e01.XviD.SATRip.25Kuzmich.avi
Формат : AVI
Формат/Информация : Audio Video Interleave
Размер файла : 633 Мбайт
Продолжительность : 47 м. 49 с.
Общий поток : 1852 Кбит/сек
Программа кодирования : VirtualDubMod 1.5.10.3 | www.virtualdub-fr.org || (build 2550/release)
Библиотека кодирования : VirtualDubMod build 2550/release

Видео
Идентификатор : 0
Формат : MPEG-4 Visual
Профиль формата : Advanced Simple@L5
Параметр BVOP формата : 1
Параметр QPel формата : Нет
Параметр GMC формата : Без точки перехода
Параметр матрицы формата : Default (MPEG)
Идентификатор кодека : XVID
Идентификатор кодека/Подсказка : XviD
Продолжительность : 47 м. 49 с.
Битрейт : 1650 Кбит/сек
Ширина : 720 пикселей
Высота : 400 пикселей
Соотношение сторон : 16:9
Частота кадров : 25,000 кадров/сек
Цветовое пространство : YUV
Субдискретизация насыщенности : 4:2:0
Битовая глубина : 8 бит
Тип развёртки : Прогрессивная
Метод сжатия : С потерями
Бит/(Пиксели*Кадры) : 0.229
Размер потока : 564 Мбайт (89%)
Библиотека кодирования : XviD 1.2.1 (UTC 2008-12-04)

Аудио
Идентификатор : 1
Формат : MPEG Audio
Версия формата : Version 1
Профиль формата : Layer 3
Режим : Joint stereo
Расширение режима : MS Stereo
Идентификатор кодека : 55
Идентификатор кодека/Подсказка : MP3
Продолжительность : 47 м. 49 с.
Вид битрейта : Постоянный
Битрейт : 192 Кбит/сек
Каналы : 2 канала
Частота : 48,0 КГц
Метод сжатия : С потерями
Размер потока : 65,7 Мбайт (10%)
Выравнивание : Соединение по промежуткам
Продолжительность промежутка : 40 мс. (1,00 видеокадр)
Время предзагрузки промежутка : 504 мс.
Библиотека кодирования : LAME3.99r
Настройки программы : -m j -V 4 -q 2 -lowpass 18.6 -b 192

Когда раздача ведётся путём добавления новых серий, при каждом добавлении создётся новый торрент. Чтобы начать докачку новой серии, пользователям необходимо сделать следующее:
(1) остановить скачивание,
(2) удалить старый торрент у себя из клиента (старые серии удалять не надо),
(3) скачать новый торрент и запустить его у себя в клиенте вместо старого, при этом указать клиенту путь в старую папку, куда и должно происходить скачивание новых серий.
Ваш клиент при этом должен произвести хеширование (проверку) старой папки (если не производит сам - помогите ему сделать это), и будет докачивать только те серии, которых у вас ещё нет. Старые серии при этом не удаляются, а продолжают раздаваться!
Eсли вы уже удалили старые серии, то предотвратить повторную закачку старых серий можно, отжав галочку в соответсвующих местах при запуске нового торрента. По возможности, желательно не удалять старые серии как можно дольше, чтобы релизёр не столько продолжал раздавать старые серии, а смог сконцентрироваться на новых.
pb.wtf



Скачать Светлана через торрент http://img10.lostpic.net/2018/10/15/2a70fc9fe8cf514655864bf96a14cbee.jpg Скачать фильм Светлана через торрент бесплантно в хорошем качестве Описание: Драма «кремлевской принцессы» Светланы Аллилуевой, дочери всесильного вождя всех народов. Она была лишена материнской любви и ... 10 10 9
Info! Золотая раздача, скачанное не засчитывается.
Торрент: Зарегистрирован [2018-10-25 13:14] · скачан: 84 раз
Статус: √ проверено
Размер: 4.91 GB
Как cкачать? Как скачать Светлана через торрент | qTorrent

% Раздел Тема Автор DL S | L
Наши сериалы [ 9.78 GB ] Светлана / Дочь Сталина / Сезон: 1 / Серии: 1-8 из 8 [2018 Биография HDTVRip 720p] bober100 Скачать
1 | 0
Наши сериалы [ 5.24 GB ] Светлана / Дочь Сталина / Сезон: 1 / Серии: 1-8 из 8 [2018 Биография HDTVRip] bober100 Скачать
1 | 0
Наши сериалы [ 5.08 GB ] Светлана / Дочь Сталина / Сезон: 1 / Серии: 1-8 из 8 [2018 Биография WEB-DLRip] bober100 Скачать
1 | 0
Наши сериалы [ 20.25 GB ] Светлана / Дочь Сталина / Сезон: 1 / Серии: 1-8 из 8 [2018 Биография HDTV 1080i] bober100 Скачать
1 | 0

28-11-2019 20:33  

Отключить всю рекламу на сайте

    Дорогой пользователь! Огромная просьба, поблагодарите релизера, оцените раздачу и оставьте свои комментарий, если Вы скачали Светлана через торрент бесплатно! Внесите свою лепту в развитие PiratBit!
    Комментировать посты могут только пользователи прошедшие не сложную регистрацию
    Показать сообщения:    

    Светлана через торрент
    Скачать бесплатно Светлана
    Светлана скачать торрент
    Светлана смотреть онлайн
    Cкачать фильм Светлана бесплатно
    Светлана скачать торрент в хорошем качестве
    Светлана смотреть онлайн бесплатно в хорошем качестве


    Вы не можете начинать темы
    Вы не можете отвечать на сообщения
    Вы не можете редактировать свои сообщения
    Вы не можете удалять свои сообщения
    Вы не можете голосовать в опросах
    Вы не можете прикреплять файлы к сообщениям
    Вы можете скачивать файлы