Ссылка на приватное зеркало всего за 1$. Внимание количество ограничено!!!

OK

1+1

iTunes

мы

OK

1

WEB-DLRip

Джокер

Пифагор

Ведьмак / The Witcher сериал

iTunes

ПШазам

ОК

Оно 2

iTunes

30
pack

Вам бонус

ВАЖНО

!!Акция!!

Alien_RageХит недели

RePack

Resident Evil 21

ИГРА 18+

pack

RePack

jed

RePack

fifa19

RePack

Assassins Creed: Odyssey

RePack

NEED FOR SPEED™ PAYBACK

4 сезон

9 сезон

Бесстыжие 9 сезон

Все сериалы

все сериалы на PB.wtf

RePack

FAR CRY 5
  

Бесчестный / A Crooked Somebody (Тревор Уайт) [2017, Триллер, драма, WEB-DL 720p] MVO ["Синема УС"] pb.wtf

Бесчестный через торрент pb.wtf

Размер: 3.93 GB | Добавлен: 1 год 3 мес. назад | Торрент скачан:41 раз
Скачать  

15-10-2018 12:15 Бесчестный Скачать торрент  

Бесчестный / A Crooked SomebodyГод выпуска: 2017
Страна: США
Жанр: Триллер, драма
Продолжительность: 01:45:08
Перевод: Любительский (многоголосый) | "Синема УС"
Субтитры: отсутствуют

Режиссер: Тревор Уайт

rating

В ролях:

Майкл Мосли, Эд Харрис, Аманда Крю, Клифтон Коллинз мл., Джоанн Фроггатт, Рич Соммер, Эми Мэдиган, Джиллиан Вигмэн, Пол Бен-Виктор, Рэнди Хеллер

Описание:

В центре сюжета Майкл Вон, жулик в надеждах прославиться за счет ясновидения. В этом ему помогает Челси, его девушка и наставник в одном лице. Но кто бы предполагал, что однажды, их род деятельности заведет их в огромную ловушку, с которой нет выхода? Сможет ли Майкл выкрутится и доказать всем, что ясновидение - это дар, а не манипулирование публикой?

Качество: WEB-DL 720p
Формат: MKV

Видео: h.264,4 959 kb/s, 1280x532
Аудио#1: Русский, (AC3, 2 ch, 384 Кбит/с)
скриншот  скриншот  скриншот  

Общее
Уникальный идентификатор : 233298631989052265035463720883522854194 (0xAF83AEA04887A140938C8B3BDB9B5D32)
Полное имя : D:\A.Crooked.Somebody.2O18.P.WEB-DL.72Op_KOSHARA.mkv
Формат : Matroska
Версия формата : Version 2
Размер файла : 3,93 Гбайт
Продолжительность : 1 ч. 45 м.
Режим общего битрейта : Переменный
Общий поток : 5347 Кбит/сек
Дата кодирования : UTC 2018-10-14 09:21:15
Программа кодирования : mkvmerge v8.3.0 ('Over the Horizon') 64bit
Библиотека кодирования : libebml v1.3.1 + libmatroska v1.4.2

Видео
Идентификатор : 1
Формат : AVC
Формат/Информация : Advanced Video Codec
Профиль формата : High@L4.1
Параметр CABAC формата : Да
Параметр RefFrames формата : 4 кадра
Идентификатор кодека : V_MPEG4/ISO/AVC
Продолжительность : 1 ч. 45 м.
Вид битрейта : Переменный
Битрейт : 4959 Кбит/сек
Максимальный битрейт : 5500 Кбит/сек
Ширина : 1280 пикселей
Высота : 532 пикселя
Соотношение сторон : 2,40:1
Режим частоты кадров : Постоянный
Частота кадров : 23,976 (24000/1001) кадра/сек
Стандарт вещания : Component
Цветовое пространство : YUV
Субдискретизация насыщенности : 4:2:0
Битовая глубина : 8 бит
Тип развёртки : Прогрессивная
Бит/(Пиксели*Кадры) : 0.297
Размер потока : 3,57 Гбайт (91%)
Default : Да
Forced : Нет
Цветовой диапазон : Limited
Основные цвета : BT.709
Характеристики трансфера : BT.709
Коэффициенты матрицы : BT.709

Аудио
Идентификатор : 2
Формат : AC-3
Формат/Информация : Audio Coding 3
Расширение режима : CM (complete main)
Параметр Endianness формата : Big
Идентификатор кодека : A_AC3
Продолжительность : 1 ч. 45 м.
Вид битрейта : Постоянный
Битрейт : 384 Кбит/сек
Каналы : 2 канала
Расположение каналов : Front: L R
Частота : 48,0 КГц
Частота кадров : 31,250 кадров/сек (1536 spf)
Метод сжатия : С потерями
Размер потока : 289 Мбайт (7%)
Default : Да
Forced : Нет

pb.wtf



Скачать Бесчестный через торрент http://img10.lostpic.net/2018/10/15/1bc2d8b825db541ddb3fbe788d51116c.jpg Скачать фильм Бесчестный через торрент бесплантно в хорошем качестве Описание: В центре сюжета Майкл Вон, жулик в надеждах прославиться за счет ясновидения. В этом ему помогает Челси, его девушка и наставник ... 10 10 2
Торрент: Зарегистрирован [2018-10-15 12:15] · скачан: 41 раз
Статус: T временная
Размер: 3.93 GB
Как cкачать? Как скачать Бесчестный через торрент | qTorrent

% Раздел Тема Автор DL S | L
T Фильмы (мультфильмы) cо спонсором показа (Новинки AVI/MKV) [ 1.35 GB ] Бесчестный / A Crooked Somebody [2017 WEB-DLRip] MVO ["Синема УС"] bober100 Скачать
1 | 0

28-11-2019 20:33  

Отключить всю рекламу на сайте

    Дорогой пользователь! Огромная просьба, поблагодарите релизера, оцените раздачу и оставьте свои комментарий, если Вы скачали Бесчестный через торрент бесплатно! Внесите свою лепту в развитие PiratBit!
    Комментировать посты могут только пользователи прошедшие не сложную регистрацию
    Показать сообщения:    

    Бесчестный через торрент
    Скачать бесплатно Бесчестный
    Бесчестный скачать торрент
    Бесчестный смотреть онлайн
    Cкачать фильм Бесчестный бесплатно
    Бесчестный скачать торрент в хорошем качестве
    Бесчестный смотреть онлайн бесплатно в хорошем качестве


    Вы не можете начинать темы
    Вы не можете отвечать на сообщения
    Вы не можете редактировать свои сообщения
    Вы не можете удалять свои сообщения
    Вы не можете голосовать в опросах
    Вы не можете прикреплять файлы к сообщениям
    Вы можете скачивать файлы