Ссылка на приватное зеркало нашего сайта всего за 1$. Внимание количество ограничено!!!

2 сезон

iTunes

iTunes

1

iTunes

iTunes

iTunes

WEBRip

iTunes

30
pack

Вам бонус

ВАЖНО

!!Акция!!

Alien_RageХит недели

RePack

Horizon Zero Dawn

ИГРА 18+

pack

RePack

jed

!!Акция!!

Alien_Rage

RePack

fifa19

RePack

Assassins Creed: Odyssey

RePack

NEED FOR SPEED™ PAYBACK

4 сезон

9 сезон

Бесстыжие 9 сезон

Все сериалы

все сериалы на PB.wtf

RePack

FAR CRY 5
  

Перед тем как наступит Тьма / Before the Dark (Бенни Оливери) [2017, Фантастика, WEB-DL 720p] MVO [КОЛОБОК] pb.wtf

Перед тем как наступит Тьма через торрент pb.wtf

Размер: 2.5 GB | Добавлен: 1 год 11 мес. назад | Торрент скачан:207 раз
Скачать  

15-10-2018 13:39 Перед тем как наступит Тьма Скачать торрент  

Перед тем как наступит Тьма / Before the DarkГод выпуска: 2017
Страна: США
Жанр: Фантастика
Продолжительность: 01:02:01
Перевод: Любительский (многоголосый) | КОЛОБОК
Субтитры: отсутствуют

Режиссер: Бенни Оливери

rating

В ролях:

Райан Куинн Адамс, Саманта Лауренти, Рэй Медведь, Брэд Хэмерли, Трэвис Оуэнс, Джанин Ромни, Даррел П. Миллер, Николь Берри, Джошуа Дэвид Нил

Описание:

Когда у Питера пропадает жена и полиция отказывается даже принимать заявление, не то что браться за её поиски - он начинает подозревать худшее. Пару недель спустя, с ним связывается ведущий видеоподкаста по конспирологии, который считает, что жена Питера - идеальный кандидат для тайной правительственной программы по межзвездной колонизации. Но правда оказывается в разы невероятнее, меняя само представление Питера о том кто он и каково его место в этом мире.

Качество: WEB-DL 720p
Формат: MKV

Видео: h.264,5 383 Кбит/с, 1280x544
Аудио#1: Русский, (AC3, 2 ch, 384 Кбит/с)
скриншот  скриншот  скриншот  

Общее
Уникальный идентификатор : 184331652362360387968105198667412973581 (0x8AACFC224B99043F94D8C56567FEA80D)
Полное имя : D:\Before the Dark.2017.Pk.WEB-DL.72Op.mkv
Формат : Matroska
Версия формата : Version 2
Размер файла : 2,50 Гбайт
Продолжительность : 1 ч. 2 м.
Режим общего битрейта : Переменный
Общий поток : 5769 Кбит/сек
Дата кодирования : UTC 2018-10-15 09:30:27
Программа кодирования : mkvmerge v8.3.0 ('Over the Horizon') 64bit
Библиотека кодирования : libebml v1.3.1 + libmatroska v1.4.2

Видео
Идентификатор : 1
Формат : AVC
Формат/Информация : Advanced Video Codec
Профиль формата : High@L4.1
Параметр CABAC формата : Да
Параметр RefFrames формата : 4 кадра
Идентификатор кодека : V_MPEG4/ISO/AVC
Продолжительность : 1 ч. 2 м.
Вид битрейта : Переменный
Битрейт : 5383 Кбит/сек
Максимальный битрейт : 6000 Кбит/сек
Ширина : 1280 пикселей
Высота : 544 пикселя
Соотношение сторон : 2,35:1
Режим частоты кадров : Постоянный
Частота кадров : 23,976 (24000/1001) кадра/сек
Стандарт вещания : Component
Цветовое пространство : YUV
Субдискретизация насыщенности : 4:2:0
Битовая глубина : 8 бит
Тип развёртки : Прогрессивная
Бит/(Пиксели*Кадры) : 0.316
Размер потока : 2,28 Гбайт (91%)
Default : Да
Forced : Нет
Цветовой диапазон : Limited
Основные цвета : BT.709
Характеристики трансфера : BT.709
Коэффициенты матрицы : BT.709

Аудио
Идентификатор : 2
Формат : AC-3
Формат/Информация : Audio Coding 3
Расширение режима : CM (complete main)
Параметр Endianness формата : Big
Идентификатор кодека : A_AC3
Продолжительность : 1 ч. 2 м.
Вид битрейта : Постоянный
Битрейт : 384 Кбит/сек
Каналы : 2 канала
Расположение каналов : Front: L R
Частота : 48,0 КГц
Частота кадров : 31,250 кадров/сек (1536 spf)
Метод сжатия : С потерями
Размер потока : 170 Мбайт (7%)
Default : Да
Forced : Нет

pb.wtf



Скачать Перед тем как наступит Тьма через торрент http://img11.lostpic.net/2018/10/15/d48866c522b3d95b61fb9705aec8a45a.jpg Скачать фильм Перед тем как наступит Тьма через торрент бесплантно в хорошем качестве Описание: Когда у Питера пропадает жена и полиция отказывается даже принимать заявление, не то что браться за её поиски - он начинает ... 9.5 10 6
Торрент: Зарегистрирован [2018-10-15 13:39] · скачан: 207 раз
Статус: T временная
Размер: 2.5 GB
Как cкачать? Как скачать Перед тем как наступит Тьма через торрент | qTorrent

% Раздел Тема Автор DL S | L
T Фильмы (мультфильмы) cо спонсором показа (Новинки AVI/MKV) [ 745 MB ] Перед тем как наступит Тьма / Before the Dark [2017 WEB-DLRip] MVO [КОЛОБОК] bober100 Скачать
1 | 0

28-11-2019 20:33  

Отключить всю рекламу на сайте

15-10-2018 15:07 Перед тем как наступит Тьма Скачать торрент  

похоже ливерок какойто. pb.wtf



16-10-2018 10:18 Перед тем как наступит Тьма Скачать торрент  

RA013 писал(а):

похоже ливерок какойто.

но согласись, на фоне всяческих марвелов и шестиголовых акул полнометражная нф в последнее время редкость. хотябы заценить стоит.
трейлер:


pb.wtf



05-11-2018 09:45 Перед тем как наступит Тьма Скачать торрент  

Редкостное говно!pb.wtf



    Дорогой пользователь! Огромная просьба, поблагодарите релизера, оцените раздачу и оставьте свои комментарий, если Вы скачали Перед тем как наступит Тьма через торрент бесплатно! Внесите свою лепту в развитие PiratBit!
    Комментировать посты могут только пользователи прошедшие не сложную регистрацию
    Показать сообщения:    

    Перед тем как наступит Тьма через торрент
    Скачать бесплатно Перед тем как наступит Тьма
    Перед тем как наступит Тьма скачать торрент
    Перед тем как наступит Тьма смотреть онлайн
    Cкачать фильм Перед тем как наступит Тьма бесплатно
    Перед тем как наступит Тьма скачать торрент в хорошем качестве
    Перед тем как наступит Тьма смотреть онлайн бесплатно в хорошем качестве


    Вы не можете начинать темы
    Вы не можете отвечать на сообщения
    Вы не можете редактировать свои сообщения
    Вы не можете удалять свои сообщения
    Вы не можете голосовать в опросах
    Вы не можете прикреплять файлы к сообщениям
    Вы можете скачивать файлы