Ссылка на приватное зеркало всего за 1$. Внимание количество ограничено!!!

OK

1+1

iTunes

мы

OK

1

WEB-DLRip

Джокер

Пифагор

Ведьмак / The Witcher сериал

iTunes

ПШазам

ОК

Оно 2

iTunes

30
pack

Вам бонус

ВАЖНО

!!Акция!!

Alien_RageХит недели

RePack

Resident Evil 21

ИГРА 18+

pack

RePack

jed

RePack

fifa19

RePack

Assassins Creed: Odyssey

RePack

NEED FOR SPEED™ PAYBACK

4 сезон

9 сезон

Бесстыжие 9 сезон

Все сериалы

все сериалы на PB.wtf

RePack

FAR CRY 5
  

Безумный мир / Mad World / Dystopia (Пол Тантер) [2018, Фантастика, WEB-DL 720p] MVO [КОЛОБОК] pb.wtf

Безумный мир через торрент pb.wtf

Размер: 2.97 GB | Добавлен: 1 год 3 мес. назад | Торрент скачан:145 раз
Скачать  

15-10-2018 13:53 Безумный мир Скачать торрент  

Безумный мир / Mad World / DystopiaГод выпуска: 2018
Страна: США
Жанр: Фантастика
Продолжительность: 01:27:53
Перевод: Любительский (многоголосый) | КОЛОБОК
Субтитры: отсутствуют

Режиссер: Пол Тантер

rating

В ролях:

Майкл Копон, Саймон Филлипс, Шина Колетт, Лео Гудман, Рич Пол, Шале Лизетт Брэннан, Дэйв Хоббс, Шери Ларис, Роберт Шеперд, Питер Вудворд

Описание:

В ближайшем будущем человечество вымирает от вируса бесплодия, распространившегося вместе с метрическими чипами корпорации Био-корп, захватившей Влacть в США и назначившей на пост президента Майкла Мэдсена. Группа ученых, пытаясь сбежать из тоталитарного режима, случайно вместо телепортации изобретает машину времени, которая возможно является ключом к спасению всего мира.

Качество: WEB-DL 720p
Формат: MKV

Видео: h.264 4 451 Кбит/с, 1280x720
Аудио#1: Русский, (AC3, 2 ch, 384 Кбит/с)
скриншот  скриншот  скриншот  

Общее
Уникальный идентификатор : 196745103796745677270058188490936586519 (0x9403BA8ADCC919A884EC8664BDE29117)
Полное имя : D:\Mad World aka Dystopia.2O18.Pk.WEB-DL.72Op.mkv
Формат : Matroska
Версия формата : Version 2
Размер файла : 2,97 Гбайт
Продолжительность : 1 ч. 27 м.
Режим общего битрейта : Переменный
Общий поток : 4837 Кбит/сек
Дата кодирования : UTC 2018-10-15 09:27:55
Программа кодирования : mkvmerge v8.3.0 ('Over the Horizon') 64bit
Библиотека кодирования : libebml v1.3.1 + libmatroska v1.4.2

Видео
Идентификатор : 1
Формат : AVC
Формат/Информация : Advanced Video Codec
Профиль формата : High@L4.1
Параметр CABAC формата : Да
Параметр RefFrames формата : 4 кадра
Идентификатор кодека : V_MPEG4/ISO/AVC
Продолжительность : 1 ч. 27 м.
Вид битрейта : Переменный
Битрейт : 4451 Кбит/сек
Максимальный битрейт : 5000 Кбит/сек
Ширина : 1280 пикселей
Высота : 720 пикселей
Соотношение сторон : 16:9
Режим частоты кадров : Постоянный
Частота кадров : 23,976 (24000/1001) кадра/сек
Стандарт вещания : Component
Цветовое пространство : YUV
Субдискретизация насыщенности : 4:2:0
Битовая глубина : 8 бит
Тип развёртки : Прогрессивная
Бит/(Пиксели*Кадры) : 0.197
Размер потока : 2,67 Гбайт (90%)
Default : Да
Forced : Нет
Цветовой диапазон : Limited
Основные цвета : BT.709
Характеристики трансфера : BT.709
Коэффициенты матрицы : BT.709

Аудио
Идентификатор : 2
Формат : AC-3
Формат/Информация : Audio Coding 3
Расширение режима : CM (complete main)
Параметр Endianness формата : Big
Идентификатор кодека : A_AC3
Продолжительность : 1 ч. 27 м.
Вид битрейта : Постоянный
Битрейт : 384 Кбит/сек
Каналы : 2 канала
Расположение каналов : Front: L R
Частота : 48,0 КГц
Частота кадров : 31,250 кадров/сек (1536 spf)
Метод сжатия : С потерями
Размер потока : 241 Мбайт (8%)
Default : Да
Forced : Нет

pb.wtf



Скачать Безумный мир через торрент http://img10.lostpic.net/2018/10/15/3c13f4558be3d8b5f39f105bf13833ae.jpg Скачать фильм Безумный мир через торрент бесплантно в хорошем качестве Описание: В ближайшем будущем человечество вымирает от вируса бесплодия, распространившегося вместе с метрическими чипами корпорации ... 10 10 9
Торрент: Зарегистрирован [2018-10-15 13:53] · скачан: 145 раз
Статус: T временная
Размер: 2.97 GB
Как cкачать? Как скачать Безумный мир через торрент | qTorrent

% Раздел Тема Автор DL S | L
T Фильмы (мультфильмы) cо спонсором показа (Новинки AVI/MKV) [ 1.37 GB ] Безумный мир / Mad World / Dystopia [2018 WEB-DLRip] MVO [КОЛОБОК] bober100 Скачать
1 | 0

28-11-2019 20:33  

Отключить всю рекламу на сайте

15-10-2018 15:18 Безумный мир Скачать торрент  

Пожалуй пройду мимио. автору спс.pb.wtf



15-10-2018 20:47 Безумный мир Скачать торрент  

Майкла Мэдсена? Президентом? Серьезно?pb.wtf



    Дорогой пользователь! Огромная просьба, поблагодарите релизера, оцените раздачу и оставьте свои комментарий, если Вы скачали Безумный мир через торрент бесплатно! Внесите свою лепту в развитие PiratBit!
    Комментировать посты могут только пользователи прошедшие не сложную регистрацию
    Показать сообщения:    

    Безумный мир через торрент
    Скачать бесплатно Безумный мир
    Безумный мир скачать торрент
    Безумный мир смотреть онлайн
    Cкачать фильм Безумный мир бесплатно
    Безумный мир скачать торрент в хорошем качестве
    Безумный мир смотреть онлайн бесплатно в хорошем качестве


    Вы не можете начинать темы
    Вы не можете отвечать на сообщения
    Вы не можете редактировать свои сообщения
    Вы не можете удалять свои сообщения
    Вы не можете голосовать в опросах
    Вы не можете прикреплять файлы к сообщениям
    Вы можете скачивать файлы