Ссылка на приватное зеркало нашего сайта всего за 1$. Внимание количество ограничено!!!

2 сезон

iTunes

1 сезон

1

iTunes

iTunes

iTunes

1 сезон

RePack

30

ИГРА 18+

pack

ВАЖНО

!!Акция!!

Alien_RageХит недели

RePack

MK11
pack

Забери бонус

RePack

jed

!!Акция!!

Alien_Rage

RePack

fifa19

RePack

Assassins Creed: Odyssey

RePack

NEED FOR SPEED™ PAYBACK

4 сезон

9 сезон

Бесстыжие 9 сезон

Все сериалы

все сериалы на PB.wtf

RePack

FAR CRY 5
  

Светлана / Дочь Сталина / Сезон: 1 / Серии: 1-8 из 8 (Евгений Звездаков) [2018, Биография, драма, HDTV 1080i] pb.wtf

Светлана через торрент pb.wtf

Размер: 20.25 GB | Добавлен: 2 года назад | Торрент скачан:15 раз
Скачать  

15-10-2018 15:50 Светлана Скачать торрент  

Светлана / Дочь Сталина
Год выпуска: 2018
Страна: Россия
Жанр: Биография, драма
Продолжительность: ~ 00:47:00 серия
Субтитры: отсутствуют

Режиссер: Евгений Звездаков



В ролях:

Виктория Романенко, Сергей Колтаков, Павел Трубинер, Сергей Колос, Сергей Лосев, Роберт Студеновский, Семён Стругачёв, Маша Полиенко, Алёна Савастова, Кирилл Иванов, Даниил Кокин, Илья Катунцев, Карен Галстян, Елизавета Александрова, Елизавета Нилова

Описание:

Драма «кремлевской принцессы» Светланы Аллилуевой, дочери всесильного вождя всех народов. Она была лишена материнской любви и ласки, зато в избытке хлебнула отцовской строгости. Она трижды меняла имя и вероисповедание, четырежды была замужем, родила троих детей, которые отреклись от нее, дважды эмигрировала из СССР. Несколько раз уезжала и возвращалась в США. Жила в Грузии, в Швейцарии, в Англии, во Франции. Написала несколько книг.
Но до конца жизни осталась для всех дочерью Сталина…

Качество: HDTV 1080i
Формат: TS

Видео: AVC, ~ 5700 Кбит/с, 1920x1080
Аудио#1: Русский (AC3, 6 ch, 384 Кбит/с)
Аудио#2: Русский (MP2, 2 ch, 192 Кбит/с)
скриншот  скриншот  скриншот  скриншот  

Общее
Идентификатор : 1 (0x1)
Полное имя : D:\Svetlana.HDTV(1080i).GeneralFilm\01.Svetlana.HDTV(1080i).GeneralFilm.ts
Формат : MPEG-TS
Размер файла : 2,18 Гбайт
Продолжительность : 47 м. 48 с.
Режим общего битрейта : Переменный
Общий поток : 6518 Кбит/сек

Видео
Идентификатор : 1904 (0x770)
Идентификатор меню : 5640 (0x1608)
Формат : AVC
Формат/Информация : Advanced Video Codec
Профиль формата : High@L4
Параметр CABAC формата : Да
Параметр RefFrames формата : 3 кадра
Идентификатор кодека : 27
Продолжительность : 47 м. 48 с.
Битрейт : 5614 Кбит/сек
Ширина : 1920 пикселей
Высота : 1080 пикселей
Соотношение сторон : 16:9
Частота кадров : 25,000 кадров/сек
Стандарт вещания : Component
Цветовое пространство : YUV
Субдискретизация насыщенности : 4:2:0
Битовая глубина : 8 бит
Тип развёртки : Чересстрочная
Метод сохранения типа развёртки : Раздельные поля
Порядок развёртки : Верхнее поле первое
Бит/(Пиксели*Кадры) : 0.108
Размер потока : 1,87 Гбайт (86%)
Цветовой диапазон : Limited
Основные цвета : BT.709
Характеристики трансфера : BT.709
Коэффициенты матрицы : BT.709

Аудио #1
Идентификатор : 2904 (0xB58)
Идентификатор меню : 5640 (0x1608)
Формат : AC-3
Формат/Информация : Audio Coding 3
Расширение режима : CM (complete main)
Параметр Endianness формата : Big
Идентификатор кодека : 6
Продолжительность : 47 м. 48 с.
Вид битрейта : Постоянный
Битрейт : 384 Кбит/сек
Каналы : 6 каналов
Расположение каналов : Front: L C R, Side: L R, LFE
Частота : 48,0 КГц
Частота кадров : 31,250 кадров/сек (1536 spf)
Метод сжатия : С потерями
Задержка видео : -120 мс.
Размер потока : 131 Мбайт (6%)
Язык : Russian

Аудио #2
Идентификатор : 2905 (0xB59)
Идентификатор меню : 5640 (0x1608)
Формат : MPEG Audio
Версия формата : Version 1
Профиль формата : Layer 2
Идентификатор кодека : 3
Продолжительность : 47 м. 48 с.
Вид битрейта : Постоянный
Битрейт : 192 Кбит/сек
Каналы : 2 канала
Частота : 48,0 КГц
Метод сжатия : С потерями
Задержка видео : -120 мс.
Размер потока : 65,7 Мбайт (3%)
Язык : Russian

Когда раздача ведётся путём добавления новых серий, при каждом добавлении создётся новый торрент. Чтобы начать докачку новой серии, пользователям необходимо сделать следующее:
(1) остановить скачивание,
(2) удалить старый торрент у себя из клиента (старые серии удалять не надо),
(3) скачать новый торрент и запустить его у себя в клиенте вместо старого, при этом указать клиенту путь в старую папку, куда и должно происходить скачивание новых серий.
Ваш клиент при этом должен произвести хеширование (проверку) старой папки (если не производит сам - помогите ему сделать это), и будет докачивать только те серии, которых у вас ещё нет. Старые серии при этом не удаляются, а продолжают раздаваться!
Eсли вы уже удалили старые серии, то предотвратить повторную закачку старых серий можно, отжав галочку в соответсвующих местах при запуске нового торрента. По возможности, желательно не удалять старые серии как можно дольше, чтобы релизёр не столько продолжал раздавать старые серии, а смог сконцентрироваться на новых.
pb.wtf



Скачать Светлана через торрент http://img10.lostpic.net/2018/10/15/2a70fc9fe8cf514655864bf96a14cbee.jpg Скачать фильм Светлана через торрент бесплантно в хорошем качестве Описание: Драма «кремлевской принцессы» Светланы Аллилуевой, дочери всесильного вождя всех народов. Она была лишена материнской любви и ... 9 10 6
Торрент: Зарегистрирован [2018-10-25 16:40] · скачан: 15 раз
Статус: √ проверено
Размер: 20.25 GB
Как cкачать? Как скачать Светлана через торрент | qTorrent

% Раздел Тема Автор DL S | L
Наши сериалы [ 9.78 GB ] Светлана / Дочь Сталина / Сезон: 1 / Серии: 1-8 из 8 [2018 Биография HDTVRip 720p] bober100 Скачать
1 | 0
Наши сериалы [ 5.24 GB ] Светлана / Дочь Сталина / Сезон: 1 / Серии: 1-8 из 8 [2018 Биография HDTVRip] bober100 Скачать
1 | 0
Наши сериалы [ 5.08 GB ] Светлана / Дочь Сталина / Сезон: 1 / Серии: 1-8 из 8 [2018 Биография WEB-DLRip] bober100 Скачать
1 | 0
Наши сериалы [ 4.91 GB ] Светлана / Дочь Сталина / Сезон: 1 / Серии: 1-8 из 8 [2018 Биография SATRip] bober100 Скачать
1 | 0

28-11-2019 20:33  

Отключить всю рекламу на сайте

    Дорогой пользователь! Огромная просьба, поблагодарите релизера, оцените раздачу и оставьте свои комментарий, если Вы скачали Светлана через торрент бесплатно! Внесите свою лепту в развитие PiratBit!
    Комментировать посты могут только пользователи прошедшие не сложную регистрацию
    Показать сообщения:    

    Светлана через торрент
    Скачать бесплатно Светлана
    Светлана скачать торрент
    Светлана смотреть онлайн
    Cкачать фильм Светлана бесплатно
    Светлана скачать торрент в хорошем качестве
    Светлана смотреть онлайн бесплатно в хорошем качестве


    Вы не можете начинать темы
    Вы не можете отвечать на сообщения
    Вы не можете редактировать свои сообщения
    Вы не можете удалять свои сообщения
    Вы не можете голосовать в опросах
    Вы не можете прикреплять файлы к сообщениям
    Вы можете скачивать файлы