MEGA NEWS Получи личный уникальный адрес сайта и защити себя от блокировок. Внимание количество ограничено!!!

iTunes

1+1

iTunes

мы

iTunes

1

iTunes

Чернобыль

iTunes

Ральф против интернета

Лицензия

ПШазам

Лицензия

Игра престолов

Лицензия

30
pack

ВАЖНО

!!Акция!!

Alien_RageХит недели

RePack

Resident Evil 21

ИГРА 18+

pack

RePack

Metro:Exodus

!!Акция!!

Alien_Rage

RePack

fifa19

RePack

Assassins Creed: Odyssey

RePack

NEED FOR SPEED™ PAYBACK

3 сезон

9 сезон

Бесстыжие 9 сезон

Все сериалы

все сериалы на PB.wtf

RePack

FAR CRY 5
Ребята, катастрофически не хватает 1900р. для оплаты серверов за АВГУСТ (всвязи с блокировками трафик упал в 3 раза), 1-2р., выручайте.
  

Ходячие мертвецы / The Walking Dead / Сезон: 9 / Серии: 1-16 из 16 (Фрэнк Дарабонт) [2018, ужасы, триллер, драма, WEBRip] [MVO] (GostFilm) pb.wtf

Ходячие мертвецы через торрент pb.wtf

Размер: 9.27 GB | Добавлен: 6 мес. назад | Торрент скачан:34 раза
Скачать  

15-10-2018 16:20 Ходячие мертвецы Скачать торрент  

Информация о фильме
Название: Ходячие мертвецы
Оригинальное название: The Walking Dead
Год выхода: 2018
Жанр: ужасы, триллер, драма
Страна: США
Студия: AMC Studios, American Movie Classics (AMC), Circle of Confusion
Продолжительность: 1 x ~ 00:55:00
Перевод: Любительский (многоголосый закадровый

Режиссер: Фрэнк Дарабонт

В ролях: Джон Бернтал, Джеффри ДеМун, Лори Холден, Эндрю Линкольн, Адам Минарович, Чендлер Риггз, Майкл Рукер, Сара Уэйн Кэллис

О фильме:

После страшной болезни, превратившей жителей Земли в зомби, небольшая группа пока еще живых людей изо дня в день борется за выживание в новом, враждебном мире. Под предводительством бывшего полицейского Рика они ищут безопасное для жизни место, но зомби — это не самое страшное, что их ждет, основная опасность — это жестокое внутреннее соперничество среди выживших.



Файл

Качество: WEBRip
Формат: AVI
Видео: 720x400 (1.80:1), 25 fps, ~1303 kbps avg, 0.18 bit/pixel
Звук: 48 kHz, MPEG Layer 3, 2 ch, ~320.00 kbps avg
General
Complete name : E:\The.Walking.Dead.S09.400p.GostFilm\The.Walking.Dead.S09E02.400p.GostFilm.avi
Format : AVI
Format/Info : Audio Video Interleave
File size : 533 MiB
Duration : 45 min 32 s
Overall bit rate : 1 637 kb/s
Writing application : Lavf56.36.100

Video
ID : 1
Format : MPEG-4 Visual
Format profile : Simple@L1
Format settings, BVOP : No
Format settings, QPel : No
Format settings, GMC : No warppoints
Format settings, Matrix : Default (H.263)
Codec ID : FMP4
Duration : 45 min 32 s
Source duration : 25 min 21 s
Bit rate : 1 474 kb/s
Width : 720 pixels
Height : 400 pixels
Display aspect ratio : 16:9
Frame rate : 25.000 FPS
Color space : YUV
Chroma subsampling : 4:2:0
Bit depth : 8 bits
Scan type : Progressive
Compression mode : Lossy
Bits/(Pixel*Frame) : 0.205
Stream size : 267 MiB (50%)
Writing library : Lavc56.41.100

Audio
ID : 0
Format : MPEG Audio
Format version : Version 1
Format profile : Layer 3
Format settings : Joint stereo
Mode : Joint stereo
Codec ID : 55
Codec ID/Hint : MP3
Duration : 45 min 32 s
Source duration : 25 min 21 s
Bit rate mode : Constant
Bit rate : 320 kb/s
Channel(s) : 2 channels
Sampling rate : 48.0 kHz
Compression mode : Lossy
Stream size : 58.0 MiB (11%)
Alignment : Aligned on interleaves
Interleave, duration : 40 ms (1.00 video frame)
Writing library : LAME3.99.5
скриншот  скриншот  скриншот  
Внимание! Раздача ведётся путём добавления новых серий; при каждом добавлении создаётся новый торрент. Чтобы начать докачку новой серии, пользователям необходимо сделать следующее:
(1) остановить скачивание,
(2) удалить старый торрент у себя из клиента (старые серии удалять не надо),
(3) скачать новый торрент и запустить его у себя в клиенте вместо старого, при этом указать клиенту путь в старую папку куда и должно происходить скачивание новых серий.
Ваш клиент при этом должен произвести хеширование (проверку) старой папки (если не производит сам - помогите ему сделать это), и будет докачивать только те серии которых у вас ещё нет. Старые серии при этом не удаляются, а продолжают раздаваться!
Eсли вы уже удалили старые серии, то предотвратить повторную закачку старых серий можно, отжав галочку в соответствующих местах при запуске нового торрента. По возможности, желательно не удалять старые серии как можно дольше чтобы релизёр не столько продолжал раздавать старые серии, а смог сконцентрироваться на новых.
pb.wtf



Скачать Ходячие мертвецы через торрент https://a.radikal.ru/a27/1810/73/8134e275af37.jpg Скачать фильм Ходячие мертвецы через торрент бесплантно в хорошем качестве О фильме:После страшной болезни, превратившей жителей Земли в зомби, небольшая группа пока еще живых людей изо дня в день борется за ... 10 10 19
Торрент: Зарегистрирован [2019-04-01 13:12] · скачан: 34 раз
Статус: √ проверено
Размер: 9.27 GB
Как cкачать? Как скачать Ходячие мертвецы через торрент | qTorrent

% Раздел Тема Автор DL S | L
Ходячие мертвецы (The Walking Dead) [ 9.37 GB ] Ходячие мертвецы / The Walking Dead / Сезон: 9 / Серии: 1-16 из 16 [2018 WEB-DLRip] MVO [LostFilm] bober100 Скачать
3 | 1
Ходячие мертвецы (The Walking Dead) [ 8.89 GB ] Ходячие мертвецы / The Walking Dead / Сезон: 9 / Серии: 1-16 из 16 [2018 WEB-DLRip] MVO [FOX] bober100 Скачать
2 | 0
Ходячие мертвецы (The Walking Dead) [ 30.56 GB ] Ходячие мертвецы / The Walking Dead / Сезон: 9 / Серии: 1-16 из 16 [2018 WEB-DL 720p] MVO [LostFilm] bober100 Скачать
1 | 0
Ходячие мертвецы (The Walking Dead) [ 69.33 GB ] Ходячие мертвецы / The Walking Dead / Сезон: 9 / Серии: 1-16 из 16 [2018 WEB-DL 1080p] MVO [LostFilm] bober100 Скачать
1 | 0
Ходячие мертвецы (The Walking Dead) [ 31.86 GB ] Ходячие мертвецы / The Walking Dead / Сезон: 9 / Серии: 1-16 из 16 [2018 WEB-DL 1080p] MVO [FOX] bober100 Скачать
3 | 1
Ходячие мертвецы (The Walking Dead) [ 65.1 GB ] Ходячие мертвецы / The Walking Dead / Сезон: 9 / Серии: 1-16 из 16 [2018 WEB-DL 1080p] MVO [Jaskier] bober100 Скачать
1 | 0
Ходячие мертвецы (The Walking Dead) [ 26.87 GB ] Ходячие мертвецы / The Walking Dead / Сезон: 9 / Серии: 1-16 из 16 [2018 WEB-DL 720p] MVO [Jaskier] bober100 Скачать
1 | 0


>> Регистрируемся здесь <<






Отзывы и комментарии о схеме читаем и пишем здесь: ---> Отзывы и комментарии о схеме

Новые благодарочки в телеграм довольных пользователей:
скриншот   скриншот   скриншот   скриншот   скриншот

23-07-2019 14:54 Ходячие мертвецы Скачать торрент  

Топик был перенесен из форума Ходячие мертвецы (The Walking Dead) в форум Для поглощённых раздач


bober100pb.wtf



    Дорогой пользователь! Огромная просьба, поблагодарите релизера, оцените раздачу и оставьте свои комментарий, если Вы скачали Ходячие мертвецы через торрент бесплатно! Внесите свою лепту в развитие PiratBit!
    Комментировать посты могут только пользователи прошедшие не сложную регистрацию
    Показать сообщения:    

    Ходячие мертвецы через торрент
    Скачать бесплатно Ходячие мертвецы
    Ходячие мертвецы скачать торрент
    Ходячие мертвецы смотреть онлайн
    Cкачать фильм Ходячие мертвецы бесплатно
    Ходячие мертвецы скачать торрент в хорошем качестве
    Ходячие мертвецы смотреть онлайн бесплатно в хорошем качестве


    Вы не можете начинать темы
    Вы не можете отвечать на сообщения
    Вы не можете редактировать свои сообщения
    Вы не можете удалять свои сообщения
    Вы не можете голосовать в опросах
    Вы не можете прикреплять файлы к сообщениям
    Вы можете скачивать файлы