Ссылка на приватное зеркало нашего сайта всего за 1$. Внимание количество ограничено!!!

2 сезон

iTunes

1 сезон

1

2 сезон

2 сезон

iTunes

1 сезон

RePack

30

Ultimate

ВАЖНО

ИГРА 18+

pack

RePack

MK11
pack

Забери бонус

RePack

jed

!!Акция!!

Alien_Rage

RePack

fifa19

RePack

Assassins Creed: Odyssey

RePack

NEED FOR SPEED™ PAYBACK

4 сезон

9 сезон

Бесстыжие 9 сезон

Все сериалы

все сериалы на PB.wtf

RePack

FAR CRY 5
  

Нация Z / Z Nation / Сезон: 5 / Серии: 1-13 из 13 (Джон Хайамс, Карл Шэфер) [2018, Ужасы, фантастика, WEB-DL 720p] MVO [Jaskier] pb.wtf

Нация Z через торрент pb.wtf

Размер: 18.42 GB | Добавлен: 1 год 11 мес. назад | Торрент скачан:22 раза
Скачать  

15-10-2018 16:28 Нация Z Скачать торрент  

Нация Z| Z Nation

Год выпуска: 2018
Страна:США
Жанр: Ужасы, фантастика
Продолжительность: ~ 00:45:00
Перевод: Профессиональный (многоголосый закадровый) | Jaskier
Субтитры: отсутствуют

Режиссёр: Джон Хайамс, Карл Шэфер

В ролях:

ХэКит Аллан, Том Эверетт Скотт, Келлита Смит, Расселл Ходжкинсон, Нат Занг, Анастасия Баранова, ДиДжей Куаллс, Пасэй Пау, Мэтт Седеньо, Майкл Уэлш, Эмилио Ривера, Хэролд Перрино, Лиза Коронадо, Дональд Коррен, Сара Коутс, Джина Гершон, Розали Миллер, Фил Эндрейд, Марк Карр, Ким Литтл, Кит Кокс, Аарон Трэйнор, Алекс Терзиефф

Описание:

Эпидемия вируса зомби накрыла весь мир. В подвалах секретного комплекса проводят испытания вакцины, заражая поочередно трех заключенных. Выживает только один. Алвин Бернард Мерфи, та ещё зараза в прямом и переносном смысле. Он становится единственной надеждой человечества на создания вакцины против зомби. Группе выживших предстоит переправить его в другой секретный комплекс, где беднягу разберут на анализы и вытянут из него тайны антизомбина. Мерфи постепенно обнаруживает, что вакцина в его теле мутировала, сделав его своего рода зомби-мессией. Дальнейшие приключения безумной команды и их подопечного разворачиваются на фоне зомби-апокалипсиса, зунами, зорнадо, зомби-травки, которую явно покуривали сценаристы. Сериал изящно и с легкостью пародирует штампы зомби-муви, а так же наполнен совершенно прекрасными отсылками (чего стоят хотя бы доктор Куриан, главзлодей серии игр "Дом мертвых", Джордж Мартин-зомби, дописывающий свою бессмертную сагу и библейский сюжет с рождением священного зомби-дитятки и пришествием волхвов-зомби). Рекомендуется фанатам зомби-муви, людям с чувством юмора и стиля.



Качество: WEB-DL 720p
Формат: MKV

Видео: 1280x576 (2,2:1) | X264 | ~3250 kbps | 23.976 fps
Аудио 1: AC3, 48,0 КГц, 6 ch, 384 kbps - [RUS]
Аудио 2: AC3, 48,0 КГц, 6 ch, 384 kbps - [ENG]


Реклама: Присутствует звуковая (два раза в начале и конце по 10 сек.)
Переведено и озвучено: студией Jaskier
Общее
Полное имя                               : G:\Jaskier\Z.Nation Season 5 (WEB-DLRip l 400p l Jaskier)\Z.Nation.S05E01.WEB-DLRip.Jaskier.avi
Формат                                   : AVI
Формат/Информация                        : Audio Video Interleave
Размер файла                             : 546 Мбайт
Продолжительность                        : 43 м. 9 с.
Общий поток                              : 1770 Кбит/сек
Программа кодирования                    : VirtualDubMod 1.5.10.3 | www.virtualdub-fr.org || (build 2550/release)
Библиотека кодирования                   : VirtualDubMod build 2550/release

Видео
Идентификатор                            : 0
Формат                                   : MPEG-4 Visual
Профиль формата                          : Advanced Simple@L5
Настройки формата                        : BVOP2
Параметр BVOP формата                    : 2
Параметр QPel формата                    : Нет
Параметр GMC формата                     : Без точки перехода
Параметр матрицы формата                 : Default (MPEG)
Идентификатор кодека                     : XVID
Идентификатор кодека/Подсказка           : XviD
Продолжительность                        : 43 м. 9 с.
Битрейт                                  : 1500 Кбит/сек
Ширина                                   : 720 пикселей
Высота                                   : 304 пикселя
Соотношение сторон                       : 2,35:1
Частота кадров                           : 23,976 (24000/1001) кадра/сек
Цветовое пространство                    : YUV
Субдискретизация насыщенности            : 4:2:0
Битовая глубина                          : 8 бит
Тип развёртки                            : Прогрессивная
Метод сжатия                             : С потерями
Бит/(Пиксели*Кадры)                      : 0.286
Размер потока                            : 463 Мбайт (85%)
Библиотека кодирования                   : XviD 1.2.1 (UTC 2008-12-04)

Аудио #1
Идентификатор                            : 1
Формат                                   : MPEG Audio
Версия формата                           : Version 1
Профиль формата                          : Layer 3
Настройки формата                        : Joint stereo / MS Stereo
Идентификатор кодека                     : 55
Идентификатор кодека/Подсказка           : MP3
Продолжительность                        : 43 м. 9 с.
Вид битрейта                             : Постоянный
Битрейт                                  : 128 Кбит/сек
Каналы                                   : 2 канала
Частота                                  : 48,0 КГц
Частота кадров                           : 41,667 кадра/сек (1152 SPF)
Метод сжатия                             : С потерями
Размер потока                            : 39,5 Мбайт (7%)
Выравнивание                             : Соединение по промежуткам
Продолжительность промежутка             : 42  мс. (1,00 видеокадр)
Время предзагрузки промежутка            : 504  мс.
Библиотека кодирования                   : LAME3.100
Настройки программы                      : -m j -V 4 -q 3 -lowpass 17 -b 128

Аудио #2
Идентификатор                            : 2
Формат                                   : MPEG Audio
Версия формата                           : Version 1
Профиль формата                          : Layer 3
Настройки формата                        : Joint stereo / MS Stereo
Идентификатор кодека                     : 55
Идентификатор кодека/Подсказка           : MP3
Продолжительность                        : 43 м. 9 с.
Вид битрейта                             : Постоянный
Битрейт                                  : 128 Кбит/сек
Каналы                                   : 2 канала
Частота                                  : 48,0 КГц
Частота кадров                           : 41,667 кадра/сек (1152 SPF)
Метод сжатия                             : С потерями
Размер потока                            : 39,5 Мбайт (7%)
Выравнивание                             : Соединение по промежуткам
Продолжительность промежутка             : 42  мс. (1,00 видеокадр)
Время предзагрузки промежутка            : 504  мс.
Библиотека кодирования                   : LAME3.100
Настройки программы                      : -m j -V 4 -q 3 -lowpass 17 -b 128-b 128
скриншот  скриншот  скриншот  
Когда раздача ведётся путём добавления новых серий, при каждом добавлении создётся новый торрент. Чтобы начать докачку новой серии, пользователям необходимо сделать следующее:
(1) остановить скачивание,
(2) удалить старый торрент у себя из клиента (старые серии удалять не надо),
(3) скачать новый торрент и запустить его у себя в клиенте вместо старого, при этом указать клиенту путь в старую папку, куда и должно происходить скачивание новых серий.
Ваш клиент при этом должен произвести хеширование (проверку) старой папки (если не производит сам - помогите ему сделать это), и будет докачивать только те серии, которых у вас ещё нет. Старые серии при этом не удаляются, а продолжают раздаваться!
Eсли вы уже удалили старые серии, то предотвратить повторную закачку старых серий можно, отжав галочку в соответсвующих местах при запуске нового торрента. По возможности, желательно не удалять старые серии как можно дольше, чтобы релизёр не столько продолжал раздавать старые серии, а смог сконцентрироваться на новых.
pb.wtf



Скачать Нация Z через торрент http://i91.fastpic.ru/big/2018/1008/36/7f9d4659992b7dcf9c3b8f49ff092736.png Скачать фильм Нация Z через торрент бесплантно в хорошем качестве Описание: Эпидемия вируса зомби накрыла весь мир. В подвалах секретного комплекса проводят испытания вакцины, заражая поочередно трех ... 10 10 7
Торрент: Зарегистрирован [2019-01-02 20:09] · скачан: 22 раз
Статус: √ проверено
Размер: 18.42 GB
Как cкачать? Как скачать Нация Z через торрент | qTorrent

% Раздел Тема Автор DL S | L
Зарубежные сериалы [ 49.79 GB ] Нация Z / Z Nation / Сезон: 5 / Серии: 1-13 из 13 [2018 WEB-DL 1080p] MVO [LostFilm] bober100 Скачать
1 | 0
Зарубежные сериалы [ 52.05 GB ] Нация Z / Z Nation / Сезон: 5 / Серии: 1-13 из 13 [2018 WEBRip 1080p] MVO [BaibaKo] bober100 Скачать
1 | 0
Зарубежные сериалы [ 8.22 GB ] Нация Z / Z Nation / Сезон: 5 / Серии: 1-13 из 13 [2018 WEBRip] MVO [LostFilm] bober100 Скачать
1 | 0
Зарубежные сериалы [ 7.14 GB ] Нация Z / Z Nation / Сезон: 5 / Серии: 1-13 из 13 [2018 WEB-DLRip] MVO [Jaskier] bober100 Скачать
1 | 0

28-11-2019 20:33  

Отключить всю рекламу на сайте

    Дорогой пользователь! Огромная просьба, поблагодарите релизера, оцените раздачу и оставьте свои комментарий, если Вы скачали Нация Z через торрент бесплатно! Внесите свою лепту в развитие PiratBit!
    Комментировать посты могут только пользователи прошедшие не сложную регистрацию
    Показать сообщения:    

    Нация Z через торрент
    Скачать бесплатно Нация Z
    Нация Z скачать торрент
    Нация Z смотреть онлайн
    Cкачать фильм Нация Z бесплатно
    Нация Z скачать торрент в хорошем качестве
    Нация Z смотреть онлайн бесплатно в хорошем качестве


    Вы не можете начинать темы
    Вы не можете отвечать на сообщения
    Вы не можете редактировать свои сообщения
    Вы не можете удалять свои сообщения
    Вы не можете голосовать в опросах
    Вы не можете прикреплять файлы к сообщениям
    Вы можете скачивать файлы