Ссылка на приватное зеркало нашего сайта всего за 1$. Внимание количество ограничено!!!

2 сезон

iTunes

1 сезон

1

2 сезон

2 сезон

iTunes

1 сезон

RePack

30

Ultimate

ВАЖНО

ИГРА 18+

pack

RePack

MK11
pack

Забери бонус

RePack

jed

!!Акция!!

Alien_Rage

RePack

fifa19

RePack

Assassins Creed: Odyssey

RePack

NEED FOR SPEED™ PAYBACK

4 сезон

9 сезон

Бесстыжие 9 сезон

Все сериалы

все сериалы на PB.wtf

RePack

FAR CRY 5
  

Ты / You / Сезон: 1 / Серии 01-10 из 10 (Маркос Сига, Ли Толанд Кригер, Келли Сайрус) [2018, триллер, драма, криминал, WEB-DLRip] [MVO] (NewStudio) pb.wtf

Ты через торрент pb.wtf

Размер: 8.96 GB | Добавлен: 1 год 11 мес. назад | Торрент скачан:24 раза
Скачать  

15-10-2018 16:36 Ты Скачать торрент  

Ты / You Информация

Год выхода: 2018
Жанр: триллер, драма, криминал
Страна: США
Продолжительность: ~ 00:50:00
Перевод: Профессиональный (многоголосый закадровый) | NewStudio
Субтитры: русские

Режиссер: Маркос Сига, Ли Толанд Кригер, Келли Сайрус

В ролях: Пенн Бэджли, Элизабет Лэил, Шэй Митчелл, Лука Падован, Николь Кан, Кэтрин Галлахер, Виктория Картагена, Дэниэл Косгров и др.

О фильме:

На что вы готовы ради любви? Когда успешный менеджер книжного магазина встречает талантливую начинающую писательницу, для него ответ очевиден: абсолютно на все. Используя соцсети, он узнает мельчайшие подробности о жизни девушки, чтобы подобраться к ней как можно ближе. Милая влюбленность перерастает в опасную одержимость. Парень готов тихо и методично устранить любое препятствие на пути к своей цели, даже если это препятствие — человек.

ratingскриншот  


Файл

Качество: WEB-DLRip
Формат: AVI
Видео: XviD, ~ 2000 Кбит/с, 704x352
Звук 1: AC-3, 48 KHz, 6 ch, 384 kbps | MVO
Звук 2: AC-3, 48 KHz, 6 ch, 384 kbps | ENG
скриншот  скриншот  скриншот  
General
Complete name : E:\You\You.s01e05.avi
Format : AVI
Format/Info : Audio Video Interleave
File size : 899 MiB
Duration : 45 min 6 s
Overall bit rate : 2 787 kb/s
Writing application : VirtualDubMod 1.5.10.2 (build 2540/release)
Writing library : VirtualDubMod build 2540/release

Video
ID : 0
Format : MPEG-4 Visual
Format profile : Advanced Simple@L5
Format settings : BVOP1 / Custom Matrix
Format settings, BVOP : 1
Format settings, QPel : No
Format settings, GMC : No warppoints
Format settings, Matrix : Custom
Codec ID : XVID
Codec ID/Hint : XviD
Duration : 45 min 6 s
Bit rate : 1 898 kb/s
Width : 704 pixels
Height : 352 pixels
Display aspect ratio : 2.000
Frame rate : 23.976 (24000/1001) FPS
Color space : YUV
Chroma subsampling : 4:2:0
Bit depth : 8 bits
Scan type : Progressive
Compression mode : Lossy
Bits/(Pixel*Frame) : 0.319
Stream size : 612 MiB (68%)
Writing library : XviD 73

Audio #1
ID : 1
Format : AC-3
Format/Info : Audio Coding 3
Format settings, Endianness : Big
Codec ID : 2000
Duration : 45 min 6 s
Bit rate mode : Constant
Bit rate : 384 kb/s
Channel(s) : 6 channels
Channel positions : Front: L C R, Side: L R, LFE
Sampling rate : 48.0 kHz
Frame rate : 31.250 FPS (1536 SPF)
Bit depth : 16 bits
Compression mode : Lossy
Stream size : 124 MiB (14%)
Alignment : Split accross interleaves
Service kind : Complete Main

Audio #2
ID : 2
Format : AC-3
Format/Info : Audio Coding 3
Format settings, Endianness : Big
Codec ID : 2000
Duration : 45 min 6 s
Bit rate mode : Constant
Bit rate : 384 kb/s
Channel(s) : 6 channels
Channel positions : Front: L C R, Side: L R, LFE
Sampling rate : 48.0 kHz
Frame rate : 31.250 FPS (1536 SPF)
Bit depth : 16 bits
Compression mode : Lossy
Stream size : 124 MiB (14%)
Alignment : Split accross interleaves
Service kind : Complete Main
Внимание! Раздача ведётся путём добавления новых серий; при каждом добавлении создаётся новый торрент. Чтобы начать докачку новой серии, пользователям необходимо сделать следующее:

Остановить скачивание.

Удалить старый торрент у себя из клиента (старые серии удалять не надо).

Скачать новый торрент и запустить его у себя в клиенте вместо старого, при этом указать клиенту путь в старую папку куда и должно происходить скачивание новых серий.

Ваш клиент при этом должен произвести хеширование (проверку) старой папки (если не производит сам - помогите ему сделать это), и будет докачивать только те серии которых у вас ещё нет. Старые серии при этом не удаляются, а продолжают раздаваться!

Eсли вы уже удалили старые серии, то предотвратить повторную закачку старых серий можно, отжав галочку в соответсвующих местах при запуске нового торрента. По возможности, желательно не удалять старые серии как можно дольше чтобы релизёр не столько продолжал раздавать старые серии, а смог сконцентрироваться на новых.
pb.wtf



Скачать Ты через торрент https://i91.fastpic.ru/big/2018/0929/7b/7413a8c080eb049c37792a2b08d77b7b.jpg Скачать фильм Ты через торрент бесплантно в хорошем качестве О фильме:На что вы готовы ради любви? Когда успешный менеджер книжного магазина встречает талантливую начинающую писательницу, для него ... 10 10 5
Info! Золотая раздача, скачанное не засчитывается.
Торрент: Зарегистрирован [2018-11-27 14:06] · скачан: 24 раз
Статус: √ проверено
Размер: 8.96 GB
Как cкачать? Как скачать Ты через торрент | qTorrent

% Раздел Тема Автор DL S | L
Зарубежные сериалы [ 151.14 GB ] Ты - воплощение порока / Ты - отстой / You're The Worst / Сезон: 1-5 / Серии: 1-62 из 62 [2014-2019 WEB-DL 1080p] [MVO] killermax2013 Скачать
1 | 0
Зарубежные сериалы [ 27.65 GB ] Ты / You / Сезон: 1 / Серии 01-10 из 10 [2018 WEBRip 1080p] [MVO] killermax2013 Скачать
1 | 0
Зарубежные сериалы [ 19.19 GB ] Ты / You / Сезон: 2 / Серии: 1-10 из 10 [2019 WEB-DL 1080p] DUB [Пифагор / Netflix] bober100 Скачать
1 | 0
Зарубежные сериалы [ 7.18 GB ] Ты боишься темноты? / Are You Afraid of the Dark? / Сезон: 1 / Серии: 1-3 из 3 [2019 WEB-DL 1080p] MVO [TVShows] bober100 Скачать
1 | 0
Зарубежные сериалы [ 9.02 GB ] Ты / You / Сезон: 1 / Серии: 1-10 из 10 [2018 WEBRip 720p] MVO [AlexFilm] bober100 Скачать
1 | 0
Зарубежные сериалы [ 5.17 GB ] Ты / You / Сезон: 1 / Серии: 1-10 из 10 [2018 WEBRip] MVO [AlexFilm] bober100 Скачать
1 | 0
Зарубежные сериалы [ 5.34 GB ] Ты / You / Сезон: 1 / Серии: 1-10 из 10 [2018 WEBRip] MVO [Good People] bober100 Скачать
1 | 0

28-11-2019 20:33  

Отключить всю рекламу на сайте

    Дорогой пользователь! Огромная просьба, поблагодарите релизера, оцените раздачу и оставьте свои комментарий, если Вы скачали Ты через торрент бесплатно! Внесите свою лепту в развитие PiratBit!
    Комментировать посты могут только пользователи прошедшие не сложную регистрацию
    Показать сообщения:    

    Ты через торрент
    Скачать бесплатно Ты
    Ты скачать торрент
    Ты смотреть онлайн
    Cкачать фильм Ты бесплатно
    Ты скачать торрент в хорошем качестве
    Ты смотреть онлайн бесплатно в хорошем качестве


    Вы не можете начинать темы
    Вы не можете отвечать на сообщения
    Вы не можете редактировать свои сообщения
    Вы не можете удалять свои сообщения
    Вы не можете голосовать в опросах
    Вы не можете прикреплять файлы к сообщениям
    Вы можете скачивать файлы