Ссылка на приватное зеркало всего за 1$. Внимание количество ограничено!!!

OK

1+1

iTunes

мы

OK

1

WEB-DLRip

Джокер

Пифагор

Ведьмак / The Witcher сериал

iTunes

ПШазам

ОК

Оно 2

iTunes

30
pack

Вам бонус

ВАЖНО

!!Акция!!

Alien_RageХит недели

RePack

Resident Evil 21

ИГРА 18+

pack

RePack

jed

RePack

fifa19

RePack

Assassins Creed: Odyssey

RePack

NEED FOR SPEED™ PAYBACK

4 сезон

9 сезон

Бесстыжие 9 сезон

Все сериалы

все сериалы на PB.wtf

RePack

FAR CRY 5
  

Нападение шестиглавой акулы / 6-Headed Shark Attack (Марк Аткинс) [2018, Ужасы, фантастика, боевик, триллер, комедия, приключения, HDRip] MVO ["Синема УС"] pb.wtf

Нападение шестиглавой акулы через торрент pb.wtf

Размер: 1.37 GB | Добавлен: 1 год 3 мес. назад | Торрент скачан:72 раза
Скачать  

15-10-2018 19:34 Нападение шестиглавой акулы Скачать торрент  

Нападение шестиглавой акулы / 6-Headed Shark Attack Год выпуска: 2018
Страна: США
Жанр: Ужасы, фантастика, боевик, триллер, комедия, приключения
Продолжительность: 01:31:41
Перевод: Любительский (многоголосый) | "Синема УС"
Субтитры: отсутствуют

Режиссер: Марк Аткинс

rating

В ролях:

Брэндон Оре, Танди Себе, Корд Ньюман, Найма Себе, Тапива Мусвосви, Крис Фишер, Меган Оберхольцер, Джонатан Пиенаар, Чарли Кигэн, Джессика Клоет

Описание:

Влюблённые пары приплывают на отдалённый остров, чтобы пройти курсы по укреплению отношений, но становятся жертвами нападения ужасающего морского чудовища.

Качество: HDRip
Формат: AVI

Видео: XviD, 1677 Кбит/с, 720x304
Аудио#1: Русский, (AC3, 2 ch, 448 Кбит/с)
скриншот  скриншот  скриншот  
Общее
Полное имя : D:\6.headed.shark.attack.2018.P.HDRip.14OOMB_KOSHARA.avi
Формат : AVI
Формат/Информация : Audio Video Interleave
Размер файла : 1,37 Гбайт
Продолжительность : 1 ч. 31 м.
Общий поток : 2135 Кбит/сек
Программа кодирования : VirtualDubMod 1.5.10.2 (build 2540/release)
Библиотека кодирования : VirtualDubMod build 2540/release

Видео
Идентификатор : 0
Формат : MPEG-4 Visual
Профиль формата : Advanced Simple@L5
Параметр BVOP формата : 2
Параметр QPel формата : Нет
Параметр GMC формата : Без точки перехода
Параметр матрицы формата : Выборочная
Идентификатор кодека : XVID
Идентификатор кодека/Подсказка : XviD
Продолжительность : 1 ч. 31 м.
Битрейт : 1677 Кбит/сек
Ширина : 720 пикселей
Высота : 400 пикселей
Соотношение сторон : 16:9
Частота кадров : 23,976 (24000/1001) кадра/сек
Цветовое пространство : YUV
Субдискретизация насыщенности : 4:2:0
Битовая глубина : 8 бит
Тип развёртки : Прогрессивная
Метод сжатия : С потерями
Бит/(Пиксели*Кадры) : 0.243
Размер потока : 1,07 Гбайт (79%)
Библиотека кодирования : XviD 1.2.1 (UTC 2008-12-04)

Аудио
Идентификатор : 1
Формат : AC-3
Формат/Информация : Audio Coding 3
Расширение режима : CM (complete main)
Параметр Endianness формата : Big
Идентификатор кодека : 2000
Продолжительность : 1 ч. 31 м.
Вид битрейта : Постоянный
Битрейт : 448 Кбит/сек
Каналы : 2 канала
Расположение каналов : Front: L R
Частота : 48,0 КГц
Частота кадров : 31,250 кадров/сек (1536 spf)
Метод сжатия : С потерями
Размер потока : 294 Мбайт (21%)
Выравнивание : Разделение по промежуткам
Продолжительность промежутка : 42 мс. (1,00 видеокадр)
Время предзагрузки промежутка : 500 мс.
pb.wtf



Скачать Нападение шестиглавой акулы через торрент http://img10.lostpic.net/2018/10/15/e809aadba6013b14a7b98b3350271702.jpg Скачать фильм Нападение шестиглавой акулы через торрент бесплантно в хорошем качестве Описание: Влюблённые пары приплывают на отдалённый остров, чтобы пройти курсы по укреплению отношений, но становятся жертвами нападения ... 7.4 10 7
Торрент: Зарегистрирован [2018-10-15 19:34] · скачан: 72 раз
Статус: T временная
Размер: 1.37 GB
Как cкачать? Как скачать Нападение шестиглавой акулы через торрент | qTorrent

% Раздел Тема Автор DL S | L
# Фильмы (мультфильмы) cо спонсором показа (Новинки AVI/MKV) [ 4.68 GB ] Нападение шестиглавой акулы / 6-Headed Shark Attack [2018 BDRip 720p] MVO ["Синема УС"] bober100 Скачать
1 | 0

28-11-2019 20:33  

Отключить всю рекламу на сайте

17-10-2018 17:50 Нападение шестиглавой акулы Скачать торрент  

тот ещё шедевр импортного кинопрома."асилум" отдыхает pb.wtf



18-10-2018 07:15 Нападение шестиглавой акулы Скачать торрент  

Шедевр . Вспомнилась сказка где Иван Царевич змею Горынычу головы отрубал . Посмотреть советую только треллер к фильму . Ясно же что просто по обкурке сделано .Она ,окула , не тока плавает но и ходит как краб на головах. Я просто орнул с этого .pb.wtf



18-10-2018 08:11 Нападение шестиглавой акулы Скачать торрент  

пересмотрел трейлер 14 раз, ходячую на головах акулу не увидел((pb.wtf



    Дорогой пользователь! Огромная просьба, поблагодарите релизера, оцените раздачу и оставьте свои комментарий, если Вы скачали Нападение шестиглавой акулы через торрент бесплатно! Внесите свою лепту в развитие PiratBit!
    Комментировать посты могут только пользователи прошедшие не сложную регистрацию
    Показать сообщения:    

    Нападение шестиглавой акулы через торрент
    Скачать бесплатно Нападение шестиглавой акулы
    Нападение шестиглавой акулы скачать торрент
    Нападение шестиглавой акулы смотреть онлайн
    Cкачать фильм Нападение шестиглавой акулы бесплатно
    Нападение шестиглавой акулы скачать торрент в хорошем качестве
    Нападение шестиглавой акулы смотреть онлайн бесплатно в хорошем качестве


    Вы не можете начинать темы
    Вы не можете отвечать на сообщения
    Вы не можете редактировать свои сообщения
    Вы не можете удалять свои сообщения
    Вы не можете голосовать в опросах
    Вы не можете прикреплять файлы к сообщениям
    Вы можете скачивать файлы