Ссылка на приватное зеркало всего за 1$. Внимание количество ограничено!!!

OK

1+1

iTunes

мы

OK

1

WEB-DLRip

Джокер

Пифагор

Ведьмак / The Witcher сериал

iTunes

ПШазам

ОК

Оно 2

iTunes

30
pack

Вам бонус

ВАЖНО

!!Акция!!

Alien_RageХит недели

RePack

Resident Evil 21

ИГРА 18+

pack

RePack

jed

RePack

fifa19

RePack

Assassins Creed: Odyssey

RePack

NEED FOR SPEED™ PAYBACK

4 сезон

9 сезон

Бесстыжие 9 сезон

Все сериалы

все сериалы на PB.wtf

RePack

FAR CRY 5
  

Нападение шестиглавой акулы / 6-Headed Shark Attack (Марк Аткинс) [2018, Ужасы, фантастика, боевик, триллер, комедия, приключения, BDRip 720p] MVO ["Синема УС"] pb.wtf

Нападение шестиглавой акулы через торрент pb.wtf

Размер: 4.68 GB | Добавлен: 1 год 3 мес. назад | Торрент скачан:44 раза
Скачать  

15-10-2018 19:34 Нападение шестиглавой акулы Скачать торрент  

Нападение шестиглавой акулы / 6-Headed Shark Attack Год выпуска: 2018
Страна: США
Жанр: Ужасы, фантастика, боевик, триллер, комедия, приключения
Продолжительность: 01:31:41
Перевод: Любительский (многоголосый) | "Синема УС"
Субтитры: отсутствуют

Режиссер: Марк Аткинс

rating

В ролях:

Брэндон Оре, Танди Себе, Корд Ньюман, Найма Себе, Тапива Мусвосви, Крис Фишер, Меган Оберхольцер, Джонатан Пиенаар, Чарли Кигэн, Джессика Клоет

Описание:

Влюблённые пары приплывают на отдалённый остров, чтобы пройти курсы по укреплению отношений, но становятся жертвами нападения ужасающего морского чудовища.

Качество: BDRip 720p
Формат: MKV

Видео: h.264, 6 852 kb/s, 1280x720
Аудио: Русский, (AC3, 2 ch, 448 Кбит/с)
скриншот  скриншот  скриншот  

Общее
Уникальный идентификатор : 191051683783660587306908109423348758484 (0x8FBB37436ACFB56B866E36FC864B37D4)
Полное имя : D:\6.headed.shark.attack.2018.P.BDRip.72Op_KOSHARA.mkv
Формат : Matroska
Версия формата : Version 2
Размер файла : 4,68 Гбайт
Продолжительность : 1 ч. 31 м.
Режим общего битрейта : Переменный
Общий поток : 7302 Кбит/сек
Дата кодирования : UTC 2018-10-15 10:42:51
Программа кодирования : mkvmerge v8.3.0 ('Over the Horizon') 64bit
Библиотека кодирования : libebml v1.3.1 + libmatroska v1.4.2

Видео
Идентификатор : 1
Формат : AVC
Формат/Информация : Advanced Video Codec
Профиль формата : High@L4.1
Параметр CABAC формата : Да
Параметр RefFrames формата : 4 кадра
Идентификатор кодека : V_MPEG4/ISO/AVC
Продолжительность : 1 ч. 31 м.
Вид битрейта : Переменный
Битрейт : 6852 Кбит/сек
Максимальный битрейт : 7500 Кбит/сек
Ширина : 1280 пикселей
Высота : 720 пикселей
Соотношение сторон : 16:9
Режим частоты кадров : Постоянный
Частота кадров : 23,976 (24000/1001) кадра/сек
Стандарт вещания : Component
Цветовое пространство : YUV
Субдискретизация насыщенности : 4:2:0
Битовая глубина : 8 бит
Тип развёртки : Прогрессивная
Бит/(Пиксели*Кадры) : 0.304
Размер потока : 4,30 Гбайт (92%)
Default : Да
Forced : Нет
Цветовой диапазон : Limited
Основные цвета : BT.709
Характеристики трансфера : BT.709
Коэффициенты матрицы : BT.709

Аудио
Идентификатор : 2
Формат : AC-3
Формат/Информация : Audio Coding 3
Расширение режима : CM (complete main)
Параметр Endianness формата : Big
Идентификатор кодека : A_AC3
Продолжительность : 1 ч. 31 м.
Вид битрейта : Постоянный
Битрейт : 448 Кбит/сек
Каналы : 2 канала
Расположение каналов : Front: L R
Частота : 48,0 КГц
Частота кадров : 31,250 кадров/сек (1536 spf)
Метод сжатия : С потерями
Размер потока : 294 Мбайт (6%)
Default : Да
Forced : Нет

pb.wtf



Скачать Нападение шестиглавой акулы через торрент http://img10.lostpic.net/2018/10/15/e809aadba6013b14a7b98b3350271702.jpg Скачать фильм Нападение шестиглавой акулы через торрент бесплантно в хорошем качестве Описание: Влюблённые пары приплывают на отдалённый остров, чтобы пройти курсы по укреплению отношений, но становятся жертвами нападения ... 6.3 10 7
Торрент: Зарегистрирован [2018-10-15 19:34] · скачан: 44 раз
Статус: # сомнительно
Размер: 4.68 GB
Как cкачать? Как скачать Нападение шестиглавой акулы через торрент | qTorrent

% Раздел Тема Автор DL S | L
T Фильмы (мультфильмы) cо спонсором показа (Новинки AVI/MKV) [ 1.37 GB ] Нападение шестиглавой акулы / 6-Headed Shark Attack [2018 HDRip] MVO ["Синема УС"] bober100 Скачать
1 | 0

28-11-2019 20:33  

Отключить всю рекламу на сайте

15-10-2018 19:48 Нападение шестиглавой акулы Скачать торрент  

Тема сисек не раскрыта pb.wtf



15-10-2018 22:16 Нападение шестиглавой акулы Скачать торрент  

Какие сиськи!? У акулы шесть голов!pb.wtf



15-10-2018 22:52 Нападение шестиглавой акулы Скачать торрент  

pb.wtf



16-10-2018 05:06 Нападение шестиглавой акулы Скачать торрент  

асилум pb.wtf



16-10-2018 05:46 Нападение шестиглавой акулы Скачать торрент  

pb.wtf



16-10-2018 10:26 Нападение шестиглавой акулы Скачать торрент  

Это просто писец какой трешь)))pb.wtf



16-10-2018 10:27 Нападение шестиглавой акулы Скачать торрент  

Моя плакать
pb.wtf



16-10-2018 11:23 Нападение шестиглавой акулы Скачать торрент  

Да ладно ?! ))))pb.wtf



16-10-2018 13:41 Нападение шестиглавой акулы Скачать торрент  

акулье торнадо видимо курит в сторонке. pb.wtf



16-10-2018 19:39 Нападение шестиглавой акулы Скачать торрент  

как какая-то дичь, так комментариев выше крыши ))))))))))))pb.wtf



    Дорогой пользователь! Огромная просьба, поблагодарите релизера, оцените раздачу и оставьте свои комментарий, если Вы скачали Нападение шестиглавой акулы через торрент бесплатно! Внесите свою лепту в развитие PiratBit!
    Комментировать посты могут только пользователи прошедшие не сложную регистрацию
    Показать сообщения:    

    Нападение шестиглавой акулы через торрент
    Скачать бесплатно Нападение шестиглавой акулы
    Нападение шестиглавой акулы скачать торрент
    Нападение шестиглавой акулы смотреть онлайн
    Cкачать фильм Нападение шестиглавой акулы бесплатно
    Нападение шестиглавой акулы скачать торрент в хорошем качестве
    Нападение шестиглавой акулы смотреть онлайн бесплатно в хорошем качестве


    Вы не можете начинать темы
    Вы не можете отвечать на сообщения
    Вы не можете редактировать свои сообщения
    Вы не можете удалять свои сообщения
    Вы не можете голосовать в опросах
    Вы не можете прикреплять файлы к сообщениям
    Вы можете скачивать файлы