Ссылка на приватное зеркало нашего сайта всего за 1$. Внимание количество ограничено!!!

2 сезон

iTunes

1 сезон

1

iTunes

iTunes

iTunes

1 сезон

RePack

30

ИГРА 18+

pack

ВАЖНО

!!Акция!!

Alien_RageХит недели

RePack

MK11
pack

Забери бонус

RePack

jed

!!Акция!!

Alien_Rage

RePack

fifa19

RePack

Assassins Creed: Odyssey

RePack

NEED FOR SPEED™ PAYBACK

4 сезон

9 сезон

Бесстыжие 9 сезон

Все сериалы

все сериалы на PB.wtf

RePack

FAR CRY 5
  

Скорая Помощь / Сезон: 1 / Серии: 1-20 из 20 (Богдан Дробязко) [2018, мелодрама, триллер, WEB-DLRip] pb.wtf

Скорая Помощь через торрент pb.wtf

Размер: 12.02 GB | Добавлен: 2 года назад | Торрент скачан:71 раз
Скачать  

15-10-2018 20:19 Скорая Помощь Скачать торрент  

Скорая ПомощьГод выпуска: 2018
Страна: Россия
Жанр: мелодрама, триллер
Продолжительность: ~ 00:47:00
Субтитры: отсутствуют

Режиссер: Богдан Дробязко



В ролях:

Гоша Куценко, Марина Доможирова, Александр Тютин, Пётр Баранчеев, Олег Тактаров, Екатерина Волкова, Александра Мельник, Александр Сергеев (IV), Дмитрий Янышевский, Александр Никольский (II), Анастасия Моргун, Дмитрий Родонов, Дмитрий Калистратов, Наталья Фенкина, Елена Ковальчук, Алексей Смирнов (X), Александр Загоскин (II), Максим Деричев, Сергей Кириченко

Описание:

Сюжет истории разворачивается вокруг нового водителя "Скорой помощи", который начинает демонстрировать чудеса диагностики и врачебного искусства на вызовах, спасая немало человеческих жизней. По ходу развития истории выясняется, что он - высококвалифицированный врач, несправедливо лишённый лицензии, и теперь его задача - восстановить своё доброе имя и вернуться в профессию.

Качество: WEB-DLRip
Формат: AVI

Видео: XviD, ~ 1650 Кбит/с, 720x400
Аудио: AC3, 2 ch, 192 Кбит/с
скриншот  скриншот  скриншот  скриншот  скриншот  

Общее
Полное имя : D:\Skoraya.pomoshch (2018) .WEB-DLRip.Files-x\01.Skoraya.pomoshch.WEB-DLRip.Files-x.avi
Формат : AVI
Формат/Информация : Audio Video Interleave
Размер файла : 659 Мбайт
Продолжительность : 48 м. 22 с.
Общий поток : 1905 Кбит/сек
Программа кодирования : VirtualDubMod 1.5.10.3 | www.virtualdub-fr.org || (build 2550/release)
Библиотека кодирования : VirtualDubMod build 2550/release

Видео
Идентификатор : 0
Формат : MPEG-4 Visual
Профиль формата : Advanced Simple@L5
Параметр BVOP формата : 1
Параметр QPel формата : Нет
Параметр GMC формата : Без точки перехода
Параметр матрицы формата : Выборочная
Идентификатор кодека : XVID
Идентификатор кодека/Подсказка : XviD
Продолжительность : 48 м. 22 с.
Битрейт : 1704 Кбит/сек
Ширина : 720 пикселей
Высота : 400 пикселей
Соотношение сторон : 16:9
Частота кадров : 25,000 кадров/сек
Цветовое пространство : YUV
Субдискретизация насыщенности : 4:2:0
Битовая глубина : 8 бит
Тип развёртки : Прогрессивная
Метод сжатия : С потерями
Бит/(Пиксели*Кадры) : 0.237
Размер потока : 590 Мбайт (89%)
Библиотека кодирования : XviD 73

Аудио
Идентификатор : 1
Формат : AC-3
Формат/Информация : Audio Coding 3
Расширение режима : CM (complete main)
Параметр Endianness формата : Big
Идентификатор кодека : 2000
Продолжительность : 48 м. 22 с.
Вид битрейта : Постоянный
Битрейт : 192 Кбит/сек
Каналы : 2 канала
Расположение каналов : Front: L R
Частота : 48,0 КГц
Частота кадров : 31,250 кадров/сек (1536 spf)
Метод сжатия : С потерями
Размер потока : 66,4 Мбайт (10%)
Выравнивание : Разделение по промежуткам
Продолжительность промежутка : 40 мс. (1,00 видеокадр)
Время предзагрузки промежутка : 500 мс.

Внимание! Раздача ведётся путём добавления новых серий; при каждом добавлении создаётся новый торрент. Чтобы начать докачку новой серии, пользователям необходимо сделать следующее:
(1) остановить скачивание,
(2) удалить старый торрент-файл у себя из клиента (старые серии удалять не надо),
(3) скачать новый торрент-файл из раздачи и запустить его у себя в клиенте вместо старого, при этом указать клиенту путь в старую папку, куда и должно происходить скачивание новых серий.
pb.wtf



Скачать Скорая Помощь через торрент http://img10.lostpic.net/2018/10/15/479316ed9bef749acb7948991969fdc4.jpg Скачать фильм Скорая Помощь через торрент бесплантно в хорошем качестве Описание: Сюжет истории разворачивается вокруг нового водителя "Скорой помощи", который начинает демонстрировать чудеса диагностики и ... 9.2 10 10
Торрент: Зарегистрирован [2018-10-27 09:55] · скачан: 71 раз
Статус: √ проверено
Размер: 12.02 GB
Как cкачать? Как скачать Скорая Помощь через торрент | qTorrent

% Раздел Тема Автор DL S | L
Наши сериалы [ 12.6 GB ] Скорая Помощь / Сезон: 2 / Серии: 1-20 из 20 [2019 WEBRip] bober100 Скачать
1 | 0
Наши сериалы [ 15.33 GB ] Скорая Помощь / Сезон: 2 / Серии: 1-20 из 20 [2019 WEBRip-AVC] bober100 Скачать
1 | 0
Наши сериалы [ 43.13 GB ] Скорая Помощь / Сезон: 2 / Серии: 1-20 из 20 [2019 WEB-DL 1080p] bober100 Скачать
1 | 1
Наши сериалы [ 25.79 GB ] Скорая Помощь / Сезон: 2 / Серии: 1-20 из 20 [2019 WEB-DL 720p] bober100 Скачать
1 | 0
Наши сериалы [ 11.72 GB ] Скорая Помощь / Сезон: 2 / Серии: 1-20 из 20 [2019 SATRip] bober100 Скачать
1 | 0
Наши сериалы [ 11.73 GB ] Скорая помощь / Сезон: 2 / Серии: 1-20 из 20 [2019 SATRip-AVC] aleksan55 Скачать
1 | 0
Наши сериалы [ 14.81 GB ] Скорая Помощь / Сезон: 1 / Серии: 1-20 из 20 [2018 WEB-DLRip-AVC] bober100 Скачать
1 | 0

28-11-2019 20:33  

Отключить всю рекламу на сайте

    Дорогой пользователь! Огромная просьба, поблагодарите релизера, оцените раздачу и оставьте свои комментарий, если Вы скачали Скорая Помощь через торрент бесплатно! Внесите свою лепту в развитие PiratBit!
    Комментировать посты могут только пользователи прошедшие не сложную регистрацию
    Показать сообщения:    

    Скорая Помощь через торрент
    Скачать бесплатно Скорая Помощь
    Скорая Помощь скачать торрент
    Скорая Помощь смотреть онлайн
    Cкачать фильм Скорая Помощь бесплатно
    Скорая Помощь скачать торрент в хорошем качестве
    Скорая Помощь смотреть онлайн бесплатно в хорошем качестве


    Вы не можете начинать темы
    Вы не можете отвечать на сообщения
    Вы не можете редактировать свои сообщения
    Вы не можете удалять свои сообщения
    Вы не можете голосовать в опросах
    Вы не можете прикреплять файлы к сообщениям
    Вы можете скачивать файлы