Ссылка на приватное зеркало нашего сайта всего за 1$. Внимание количество ограничено!!!

2 сезон

iTunes

1 сезон

1

2 сезон

2 сезон

iTunes

1 сезон

RePack

30

Ultimate

ВАЖНО

ИГРА 18+

pack

RePack

MK11
pack

Забери бонус

RePack

jed

!!Акция!!

Alien_Rage

RePack

fifa19

RePack

Assassins Creed: Odyssey

RePack

NEED FOR SPEED™ PAYBACK

4 сезон

9 сезон

Бесстыжие 9 сезон

Все сериалы

все сериалы на PB.wtf

RePack

FAR CRY 5
  

Кремниевая долина / Silicon Valley / Сезон: 1 / Серии: 1-8 из 8 (Майк Джадж) [2014, США, комедия, BDRip-HEVC 1080p] DVO [Кубик в Кубе] pb.wtf

Кремниевая долина через торрент pb.wtf

Раздают: 1 [ 0 KB/s ]
Размер: 4.84 GB | Добавлен: 2 года 1 мес. назад | Торрент скачан:155 раз
Скачать  

16-10-2018 04:57 Кремниевая долина Скачать торрент  

Кремниевая долина / Silicon Valley Год выпуска: 2014
Страна: США
Жанр: комедия
Продолжительность: ~00:30:00
Перевод: Профессиональный (двухголосый закадровый) | Кубик в Кубе
Субтитры: русские (Full), английские (Full, (SDH)

rating

Режиссёр: Майк Джадж

В ролях:

Томас Миддлдитч, ТиДжей Миллер, Джош Бренер, Мартин Старр, Кумэйл Нанджиани, Али Моджи, Аманда Крю, Зак Вудс, Кристофер Ивэн Уэлш, Мэтт Росс

Описание:

История о группе гиков, готовящих к запуску собственные стартапы в высокотехнологичном центре Сан-Франциско. Главные герои сериала бесплатно проживают в доме местного миллионера, но взамен им придётся отдать по 10% прибыли от будущих проектов.

Качество: BDRip-HEVC 1080p
Формат: MKV

Видео: 1920x1080 (16:9), 23.976 fps, x265/HEVC, ~2035 kb/s, 8 bit
Аудио: (Kubik v Kube) 48 kHz, AC3 Dolby Digital, 3/2 (L,C,R,l,r) + LFE ch, 384.00 kbps avg
Аудио 2: (Original) 48 kHz, AC3 Dolby Digital, 3/2 (L,C,R,l,r) + LFE ch, 384.00 kbps avg
Общее
Уникальный идентификатор : 45442578047869193309779505218445003219 (0x222FEC1412193538AA8262AE3D4E49D3)
Полное имя : G:\Сериалы\Кремниевая Долина (Silicon Valley)\Season 1\Silicon Valley S01E01 Minimum Viable Product.mkv
Формат : Matroska
Версия формата : Version 4
Размер файла : 589 Мбайт
Продолжительность : 29 м. 21 с.
Общий поток : 2807 Кбит/сек
Название фильма : Silicon Valley Season 1 Disc 1
Дата кодирования : UTC 2018-09-24 12:55:16
Программа кодирования : mkvmerge v24.0.0 ('Beyond The Pale') 64-bit
Библиотека кодирования : libebml v1.3.6 + libmatroska v1.4.9
Обложка : Yes
Attachments : cover.jpeg

Видео
Идентификатор : 1
Формат : HEVC
Формат/Информация : High Efficiency Video Coding
Профиль формата : Main@L4@Main
Идентификатор кодека : V_MPEGH/ISO/HEVC
Продолжительность : 29 м. 21 с.
Битрейт : 2035 Кбит/сек
Ширина : 1920 пикселей
Высота : 1080 пикселей
Соотношение сторон : 16:9
Режим частоты кадров : Постоянный
Частота кадров : 23,976 (24000/1001) кадра/сек
Цветовое пространство : YUV
Субдискретизация насыщенности : 4:2:0
Битовая глубина : 8 бит
Бит/(Пиксели*Кадры) : 0.041
Размер потока : 427 Мбайт (72%)
Библиотека кодирования : x265 1.9+107-5dbd6a0c8e17:[Linux][GCC 5.3.1][64 bit] 8bit+10bit+12bit
Настройки программы : wpp / ctu=64 / min-cu-size=8 / max-tu-size=32 / tu-intra-depth=3 / tu-inter-depth=3 / me=3 / subme=4 / merange=57 / rect / amp / max-merge=4 / temporal-mvp / no-early-skip / rdpenalty=0 / no-tskip / no-tskip-fast / strong-intra-smoothing / no-lossless / no-cu-lossless / no-constrained-intra / no-fast-intra / open-gop / no-temporal-layers / interlace=0 / keyint=250 / min-keyint=23 / scenecut=40 / rc-lookahead=40 / lookahead-slices=0 / bframes=8 / bframe-bias=0 / b-adapt=2 / ref=5 / limit-refs=1 / limit-modes / weightp / weightb / aq-mode=1 / qg-size=32 / aq-strength=1.00 / cbqpoffs=0 / crqpoffs=0 / rd=6 / psy-rd=0.30 / rdoq-level=2 / psy-rdoq=1.00 / no-rd-refine / signhide / deblock / sao / no-sao-non-deblock / b-pyramid / cutree / no-intra-refresh / rc=crf / crf=21.0 / qcomp=0.60 / qpmin=0 / qpmax=51 / qpstep=4 / ipratio=1.40 / pbratio=1.30
Язык : English
Default : Да
Forced : Нет

Аудио #1
Идентификатор : 2
Формат : AC-3
Формат/Информация : Audio Coding 3
Коммерческое название : Dolby Digital
Идентификатор кодека : A_AC3
Продолжительность : 29 м. 21 с.
Вид битрейта : Постоянный
Битрейт : 384 Кбит/сек
Каналы : 6 каналов
Channel layout : L R C LFE Ls Rs
Частота : 48,0 КГц
Частота кадров : 31,250 кадров/сек (1536 SPF)
Битовая глубина : 16 бит
Метод сжатия : С потерями
Размер потока : 80,6 Мбайт (14%)
Заголовок : Kubik v Kube
Язык : Russian
ServiceKind/String : Complete Main
Default : Да
Forced : Да

Аудио #2
Идентификатор : 3
Формат : AC-3
Формат/Информация : Audio Coding 3
Коммерческое название : Dolby Digital
Идентификатор кодека : A_AC3
Продолжительность : 29 м. 21 с.
Вид битрейта : Постоянный
Битрейт : 384 Кбит/сек
Каналы : 6 каналов
Channel layout : L R C LFE Ls Rs
Частота : 48,0 КГц
Частота кадров : 31,250 кадров/сек (1536 SPF)
Битовая глубина : 16 бит
Метод сжатия : С потерями
Размер потока : 80,6 Мбайт (14%)
Заголовок : Original
Язык : English
ServiceKind/String : Complete Main
Default : Нет
Forced : Нет

Текст #1
Идентификатор : 4
Формат : UTF-8
Идентификатор кодека : S_TEXT/UTF8
Идентификатор кодека/Информация : UTF-8 Plain Text
Продолжительность : 28 м. 10 с.
Битрейт : 132 бит/сек
ElementCount : 480
Размер потока : 27,3 Кбайт (0%)
Заголовок : Full
Язык : Russian
Default : Нет
Forced : Нет

Текст #2
Идентификатор : 5
Формат : UTF-8
Идентификатор кодека : S_TEXT/UTF8
Идентификатор кодека/Информация : UTF-8 Plain Text
Продолжительность : 27 м. 45 с.
Битрейт : 100 бит/сек
ElementCount : 575
Размер потока : 20,5 Кбайт (0%)
Заголовок : Full
Язык : English
Default : Нет
Forced : Нет

Текст #3
Идентификатор : 6
Формат : UTF-8
Идентификатор кодека : S_TEXT/UTF8
Идентификатор кодека/Информация : UTF-8 Plain Text
Продолжительность : 28 м. 2 с.
Битрейт : 102 бит/сек
ElementCount : 594
Размер потока : 21,1 Кбайт (0%)
Заголовок : Full (SDH)
Язык : English
Default : Нет
Forced : Нет

Меню
00:00:00.000 : :00:00:00.000
00:03:02.432 : :00:03:02.432
00:08:24.838 : :00:08:24.838
00:15:13.329 : :00:15:13.329
00:20:36.110 : :00:20:36.110
00:28:11.523 : :00:28:11.523
скриншот  скриншот  скриншот  скриншот  
pb.wtf



Скачать Кремниевая долина через торрент http://i89.fastpic.ru/big/2018/0925/54/8911ea8c6d8b829865f297d9c1365f54.jpg Скачать фильм Кремниевая долина через торрент бесплантно в хорошем качестве Описание: История о группе гиков, готовящих к запуску собственные стартапы в высокотехнологичном центре Сан-Франциско. Главные герои ... 8.8 10 4
Торрент: Зарегистрирован [2018-10-16 04:57] · скачан: 155 раз
Статус: √ проверено
Размер: 4.84 GB
Как cкачать? Как скачать Кремниевая долина через торрент | qTorrent

% Раздел Тема Автор DL S | L
Зарубежные сериалы [ 12.91 GB ] Кремниевая долина / Силиконовая долина / Silicon Valley / Сезон: 5 / Серии: 1-8 из 8 [2017 WEB-DL 1080p] [MVO] killermax2013 Скачать
1 | 0
Зарубежные сериалы [ 13.7 GB ] Кремниевая долина / Силиконовая долина / Silicon Valley / Сезон: 5 / Серии: 1-8 из 8 [2018 WEB-DL 1080p] DVO [Кубик в кубе] bober100 Скачать
3 | 0
Зарубежные сериалы [ 2.83 GB ] Кремниевая долина / Силиконовая долина / Silicon Valley / Сезон: 5 / Серии: 1-8 из 8 [2018 HDTVRip] DVO [SunshineStudio] bober100 Скачать
1 | 0
Зарубежные сериалы [ 3.13 GB ] Кремниевая долина / Силиконовая долина / Silicon Valley / Сезон: 5 / Серии: 1-8 из 8 [2017 WEB-DLRip] [MVO] killermax2013 Скачать
1 | 0
Зарубежные сериалы [ 13.8 GB ] Кремниевая долина / Силиконовая долина / Silicon Valley / Сезон: 5 / Серии: 1-8 из 8 [2018 WEB-DL 1080p] MVO [Амедиа] bober100 Скачать
1 | 0
Зарубежные сериалы [ 3.03 GB ] Кремниевая долина / Силиконовая долина / Silicon Valley / Сезон: 5 / Серии: 1-8 из 8 [2018 WEB-DLRip] MVO [Амедиа] bober100 Скачать
1 | 0
Зарубежные сериалы [ 4.12 GB ] Кремниевая долина / Silicon Valley / Сезон: 1 / Серии 1-4 из 8 [2014 HDTVRip 720p] DVO [Кубик в Кубе] + Original Messa-fan Скачать
1 | 0

28-11-2019 20:33  

Отключить всю рекламу на сайте

    Дорогой пользователь! Огромная просьба, поблагодарите релизера, оцените раздачу и оставьте свои комментарий, если Вы скачали Кремниевая долина через торрент бесплатно! Внесите свою лепту в развитие PiratBit!
    Комментировать посты могут только пользователи прошедшие не сложную регистрацию
    Показать сообщения:    

    Кремниевая долина через торрент
    Скачать бесплатно Кремниевая долина
    Кремниевая долина скачать торрент
    Кремниевая долина смотреть онлайн
    Cкачать фильм Кремниевая долина бесплатно
    Кремниевая долина скачать торрент в хорошем качестве
    Кремниевая долина смотреть онлайн бесплатно в хорошем качестве


    Вы не можете начинать темы
    Вы не можете отвечать на сообщения
    Вы не можете редактировать свои сообщения
    Вы не можете удалять свои сообщения
    Вы не можете голосовать в опросах
    Вы не можете прикреплять файлы к сообщениям
    Вы можете скачивать файлы