Ссылка на приватное зеркало нашего сайта всего за 1$. Внимание количество ограничено!!!

2 сезон

iTunes

1 сезон

1

iTunes

iTunes

iTunes

1 сезон

RePack

30

ИГРА 18+

pack

ВАЖНО

!!Акция!!

Alien_RageХит недели

RePack

MK11
pack

Забери бонус

RePack

jed

!!Акция!!

Alien_Rage

RePack

fifa19

RePack

Assassins Creed: Odyssey

RePack

NEED FOR SPEED™ PAYBACK

4 сезон

9 сезон

Бесстыжие 9 сезон

Все сериалы

все сериалы на PB.wtf

RePack

FAR CRY 5
  

Скорая помощь / Сезон: 1 / Серии: (1-2 из 20) (Богдан Дробязко) [2018 , мелодрама, триллер, HDTV 1080p] Не требуется [Русский] R.G.Generalfilm pb.wtf

Скорая помощь через торрент pb.wtf

Размер: 4.8 GB | Добавлен: 2 года назад | Торрент скачан:21 раз
Скачать  

16-10-2018 15:17 Скорая помощь Скачать торрент  


Скорая помощь


Год выпуска: 2018

Страна: Россия
Жанр: мелодрама, триллер
Продолжительность: 00:46:24
Перевод: Не требуется [Русский]
Режиссер: Богдан Дробязко
В ролях:

Гоша Куценко (Константин Кулыгин), Марина Доможирова, Екатерина Волкова (Ольга Арефьева), Александр Тютин, Петр Баранчеев, Олег Тактаров, Вадим Руденко (сосед), Дмитрий Янышевский (Арсений), Артем Кашкин, Степан Куликов, Елена Ковальчук (Аврора), Александра Мельник (Маша Трофимова)
Описание:
Сюжет истории разворачивается вокруг нового водителя «Скорой помощи», который начинает демонстрировать чудеса диагностики и врачебного искусства на вызовах, спасая немало человеческих жизней. По ходу развития истории выясняется, что он высококвалифицированный врач, несправедливо лишённый лицензии, и теперь его задача - восстановить своё доброе имя и вернуться в профессию.

Качество: HDTV 1080p Запись с
Формат: MKV
Видео кодек: AVC
Аудио кодек: AC3
Видео: AVC, 1920x1080 (16:9), 7050 kbps, 25 fps, 0,136 bpp
Аудио: AC3 / 2.0 / 48 kHz / 192 kbps /
General
Unique ID : 239155312348424149281777676606625775945 (0xB3EBA343006026BF81F4DCF837F38149)
Complete name : E:\Запись с тв\Skoraya Pomoshh 2018.HDTV 1080p.R.G.Generalfilm\Skoraya Pomoshh.s01.e01.2018.HDTV 1080p.by.White Smoke.R.G.Generalfilm.mkv
Format : Matroska
Format version : Version 4 / Version 2
File size : 2.34 GiB
Duration : 46 min
Overall bit rate mode : Constant
Overall bit rate : 7 214 kb/s
Movie name : Skoraya Pomoshh.s01.e01.2018.HDTV 1080p.by.White Smoke.R.G.Generalfilm.mkv
Encoded date : UTC 2018-10-16 14:32:17
Writing application : mkvmerge v6.8.0 ('Theme for Great Cities') 64bit built on Mar 2 2014 21:34:26
Writing library : libebml v1.3.0 + libmatroska v1.4.1
Cover : Yes
Attachments : cover.jpg

Video
ID : 1
Format : AVC
Format/Info : Advanced Video Codec
Format profile : High@L4.1
Format settings, CABAC : Yes
Format settings, ReFrames : 3 frames
Format settings, GOP : M=3, N=33
Codec ID : V_MPEG4/ISO/AVC
Duration : 46 min
Bit rate mode : Constant
Bit rate : 7 051 kb/s
Width : 1 920 pixels
Height : 1 080 pixels
Display aspect ratio : 16:9
Frame rate mode : Constant
Frame rate : 25.000 FPS
Standard : PAL
Color space : YUV
Chroma subsampling : 4:2:0
Bit depth : 8 bits
Scan type : Progressive
Bits/(Pixel*Frame) : 0.136
Stream size : 2.23 GiB (95%)
Default : Yes
Forced : No
Color range : Limited
Color primaries : BT.709
Transfer characteristics : BT.709
Matrix coefficients : BT.709

Audio
ID : 2
Format : AC-3
Format/Info : Audio Coding 3
Mode extension : CM (complete main)
Format settings, Endianness : Big
Codec ID : A_AC3
Duration : 46 min
Bit rate mode : Constant
Bit rate : 192 kb/s
Channel(s) : 2 channels
Channel positions : Front: L R
Sampling rate : 48.0 kHz
Frame rate : 31.250 FPS (1536 spf)
Compression mode : Lossy
Stream size : 63.7 MiB (3%)
Default : Yes
Forced : No
Внимание! Раздача ведётся путём добавления новых серий; при каждом добавлении создаётся новый торрент.
Чтобы начать докачку новой серии, пользователям необходимо сделать следующее:
1. Остановить скачивание;
2. Удалить старый торрент у себя из клиента (старые серии удалять не надо);
3. Скачать новый торрент и запустить его у себя в клиенте вместо старого, при этом указать клиенту путь в старую папку куда и должно происходить скачивание новых серий. Ваш клиент при этом должен произвести хеширование (проверку) старой папки и будет докачивать только те серии, которых у вас ещё нет. Старые серии при этом не удаляются, а продолжают раздаваться! Eсли вы уже удалили старые серии, то предотвратить повторную закачку старых серий можно, отжав галочку в соответствующих местах при запуске нового торрента.
pb.wtf



Скачать Скорая помощь через торрент http://interhit.org/img/2018-05/27/95e0rpzgd7ieqwngygkarjw3v.gif Скачать фильм Скорая помощь через торрент бесплантно в хорошем качестве Описание: Сюжет истории разворачивается вокруг нового водителя «Скорой помощи», который начинает демонстрировать чудеса диагностики и ... 10 10 3
Info! Золотая раздача, скачанное не засчитывается.
Торрент: Зарегистрирован [2018-10-16 15:17] · скачан: 21 раз
Статус: √ проверено
Размер: 4.8 GB
Как cкачать? Как скачать Скорая помощь через торрент | qTorrent

28-11-2019 20:33  

Отключить всю рекламу на сайте

16-10-2018 15:34 Скорая помощь Скачать торрент  

мда. лучше пойду пересмотрю ER с Клуни 1994 года сериал Майкла Крайтонаpb.wtf



    Дорогой пользователь! Огромная просьба, поблагодарите релизера, оцените раздачу и оставьте свои комментарий, если Вы скачали Скорая помощь через торрент бесплатно! Внесите свою лепту в развитие PiratBit!
    Комментировать посты могут только пользователи прошедшие не сложную регистрацию
    Показать сообщения:    

    Скорая помощь через торрент
    Скачать бесплатно Скорая помощь
    Скорая помощь скачать торрент
    Скорая помощь смотреть онлайн
    Cкачать фильм Скорая помощь бесплатно
    Скорая помощь скачать торрент в хорошем качестве
    Скорая помощь смотреть онлайн бесплатно в хорошем качестве


    Вы не можете начинать темы
    Вы не можете отвечать на сообщения
    Вы не можете редактировать свои сообщения
    Вы не можете удалять свои сообщения
    Вы не можете голосовать в опросах
    Вы не можете прикреплять файлы к сообщениям
    Вы можете скачивать файлы