новый адрес
Ссылка на приватное зеркало всего за 1$. Внимание количество ограничено!!!

iTunes

1+1

iTunes

мы

WEB-DL

1

iTunes

Чернобыль

iTunes

Ральф против интернета

Лицензия

ПШазам

Лицензия

Оно 2

Лицензия

30
pack

Вам бонус

ВАЖНО

!!Акция!!

Alien_RageХит недели

RePack

Resident Evil 21

ИГРА 18+

pack

RePack

jed

!!Акция!!

Alien_Rage

RePack

fifa19

RePack

Assassins Creed: Odyssey

RePack

NEED FOR SPEED™ PAYBACK

3 сезон

9 сезон

Бесстыжие 9 сезон

Все сериалы

все сериалы на PB.wtf

RePack

FAR CRY 5
Ребята, катастрофически не хватает 1900р. для оплаты серверов за Октябрь (всвязи с блокировками трафик упал в 3 раза), 1-2р., выручайте.
  

Последний свидетель / The Last Witness (Пётр Шкопяк) [2018, Триллер, история, BDRip-AVC] MVO [Jaskier] - ExKinoRay pb.wtf

Последний свидетель через торрент pb.wtf

Размер: 1.6 GB | Добавлен: 1 год 1 мес. назад | Торрент скачан:128 раз
Скачать  

16-10-2018 18:48 Последний свидетель Скачать торрент  

Информация о фильме
Название: Последний свидетель
Оригинальное название: The Last Witness
Год выпуска: 2018
Жанр: Триллер, история
Режиссер: Пётр Шкопяк
В ролях: Алекс Петтифер, Роберт Венцкевич, Талула Райли, Майкл Гэмбон, Уилл Торп, Генри Ллойд-Хьюз, Петр Страмовски, Гвилим Ли, Сэм Маркс, Крис Уокер

Описание:
Послевоенный Бристоль. Журналист Стивен Андервуд мечтает о славе и теме, которая, наконец, даст ход его карьере. Этот шанс появляется, когда он случайно попадает на след самоубийства польского солдата, находящегося в местном лагере для беженцев. Следуя журналистскому инстинкту, Стивен доходит до информации о том, что на самом деле случилось в Катыни. Её раскрытие повлияет на судьбы всей послевоенной Европы...

rating

Страна: Великобритания, Польша
Студия: Vicarious Productions Limited, Vicarious Productions, Dignity Film Finance
Продолжительность: 01:33:04
Перевод: Профессиональный (многоголосый, закадровый) | [Jaskier]

Формат: MKV
Качество: BDRip-AVC
Видео: MPEG-4 AVC, 1024x428 (2.40:1), 24.000 fps, ~ 1627 kbps
Аудио #01: 48 kHz, AC3, 5.1, 384 Kbps | RUS |
Аудио #02: 48 kHz, AC3, 5.1, 448 Kbps | Оригинал | ENG |
Субтитры: Английские (Full)
Навигация по главам: Есть
General
Unique ID : 254265907946168357637363963255945264304 (0xBF49D524F2B749FBA51959CBD6DD7CB0)
Complete name : D:\The.Last.Witness.2018.MVO.BDRip.AVC.ExKinoRay.mkv
Format : Matroska
Format version : Version 2
File size : 1.60 GiB
Duration : 1 h 33 min
Overall bit rate : 2 455 kb/s
Movie name : The Last Witness 2018 from ExKinoRay
Encoded date : UTC 2018-10-16 17:05:27
Writing application : mkvmerge v5.6.0 ('Kenya Kane') built on May 27 2012 16:44:04
Writing library : libebml v1.2.3 + libmatroska v1.3.0

Video
ID : 1
Format : AVC
Format/Info : Advanced Video Codec
Format profile : High@L4.1
Format settings, CABAC : Yes
Format settings, ReFrames : 12 frames
Codec ID : V_MPEG4/ISO/AVC
Duration : 1 h 33 min
Bit rate : 1 627 kb/s
Width : 1 024 pixels
Height : 428 pixels
Display aspect ratio : 2.40:1
Frame rate mode : Constant
Frame rate : 24.000 FPS
Color space : YUV
Chroma subsampling : 4:2:0
Bit depth : 8 bits
Scan type : Progressive
Bits/(Pixel*Frame) : 0.155
Stream size : 1.02 GiB (64%)
Title : Enigma
Writing library : x264 core 152 r2851 ba24899
Encoding settings : cabac=1 / ref=12 / deblock=1:-2:-2 / analyse=0x3:0x113 / me=umh / subme=10 / psy=1 / psy_rd=1.00:0.05 / mixed_ref=1 / me_range=32 / chroma_me=1 / trellis=2 / 8x8dct=1 / cqm=0 / deadzone=21,11 / fast_pskip=0 / chroma_qp_offset=-3 / threads=12 / lookahead_threads=3 / sliced_threads=0 / nr=0 / decimate=0 / interlaced=0 / bluray_compat=0 / constrained_intra=0 / bframes=12 / b_pyramid=2 / b_adapt=2 / b_bias=0 / direct=3 / weightb=1 / open_gop=0 / weightp=2 / keyint=240 / keyint_min=24 / scenecut=40 / intra_refresh=0 / rc=2pass / mbtree=0 / bitrate=1627 / ratetol=1.0 / qcomp=0.60 / qpmin=0 / qpmax=51 / qpstep=4 / cplxblur=20.0 / qblur=0.5 / ip_ratio=1.40 / pb_ratio=1.30 / aq=1:1.00
Language : English
Default : Yes
Forced : No
Color range : Limited
Color primaries : BT.709
Transfer characteristics : BT.709
Matrix coefficients : BT.709

Audio #1
ID : 2
Format : AC-3
Format/Info : Audio Coding 3
Mode extension : CM (complete main)
Format settings, Endianness : Big
Codec ID : A_AC3
Duration : 1 h 33 min
Bit rate mode : Constant
Bit rate : 384 kb/s
Channel(s) : 6 channels
Channel positions : Front: L C R, Side: L R, LFE
Sampling rate : 48.0 kHz
Frame rate : 31.250 FPS (1536 spf)
Compression mode : Lossy
Stream size : 256 MiB (16%)
Title : MVO (Jaskier)
Language : Russian
Default : Yes
Forced : No

Audio #2
ID : 3
Format : AC-3
Format/Info : Audio Coding 3
Mode extension : CM (complete main)
Format settings, Endianness : Big
Codec ID : A_AC3
Duration : 1 h 33 min
Bit rate mode : Constant
Bit rate : 448 kb/s
Channel(s) : 6 channels
Channel positions : Front: L C R, Side: L R, LFE
Sampling rate : 48.0 kHz
Frame rate : 31.250 FPS (1536 spf)
Compression mode : Lossy
Stream size : 298 MiB (18%)
Language : English
Default : No
Forced : No

Text
ID : 4
Format : UTF-8
Codec ID : S_TEXT/UTF8
Codec ID/Info : UTF-8 Plain Text
Language : English
Default : No
Forced : No

Menu
00:00:00.000 : :Chapter 01
00:00:21.916 : :Chapter 02
00:07:04.000 : :Chapter 03
00:15:01.500 : :Chapter 04
00:21:44.958 : :Chapter 05
00:30:11.250 : :Chapter 06
00:37:07.375 : :Chapter 07
00:49:33.208 : :Chapter 08
00:56:23.083 : :Chapter 09
01:02:49.541 : :Chapter 10
01:08:34.166 : :Chapter 11
01:19:08.082 : :Chapter 12
01:30:19.707 : :Chapter 13
Релиз от:

Автор релиза: pb.wtf



Скачать Последний свидетель через торрент https://b.radikal.ru/b23/1806/b6/5b28cd653172.png Скачать фильм Последний свидетель через торрент бесплантно в хорошем качестве Описание: Послевоенный Бристоль. Журналист Стивен Андервуд мечтает о славе и теме, которая, наконец, даст ход его карьере. Этот шанс ... 7.4 10 7
Info! Золотая раздача, скачанное не засчитывается.
Торрент: Зарегистрирован [2018-10-16 18:48] · скачан: 128 раз
Статус: √ проверено
Размер: 1.6 GB
Как cкачать? Как скачать Последний свидетель через торрент | qTorrent

% Раздел Тема Автор DL S | L
Фильмы [HD 720p, 1080p] (Хороший звук DUB, MVO) [ 3.42 GB ] Последний свидетель / The Last Witness [2018 история BDRip 720p] MVO [Jaskier HDrezka Studio] - ExKinoRay Enigma2010 Скачать
1 | 0

28-11-2019 20:33  

Отключить всю рекламу на сайте

    Дорогой пользователь! Огромная просьба, поблагодарите релизера, оцените раздачу и оставьте свои комментарий, если Вы скачали Последний свидетель через торрент бесплатно! Внесите свою лепту в развитие PiratBit!
    Комментировать посты могут только пользователи прошедшие не сложную регистрацию
    Показать сообщения:    

    Последний свидетель через торрент
    Скачать бесплатно Последний свидетель
    Последний свидетель скачать торрент
    Последний свидетель смотреть онлайн
    Cкачать фильм Последний свидетель бесплатно
    Последний свидетель скачать торрент в хорошем качестве
    Последний свидетель смотреть онлайн бесплатно в хорошем качестве


    Вы не можете начинать темы
    Вы не можете отвечать на сообщения
    Вы не можете редактировать свои сообщения
    Вы не можете удалять свои сообщения
    Вы не можете голосовать в опросах
    Вы не можете прикреплять файлы к сообщениям
    Вы можете скачивать файлы