2 сезон

iTunes

MVO

1

2 сезон

iTunes

iTunes

1 сезон

RePack

30

Новинка

ВАЖНО

ИГРА 18+

pack

RePack

MK11
pack

Легкие деньги

RePack

jed

RePack

fifa19

RePack

RDR2

RePack

NEED FOR SPEED™ PAYBACK

4 сезон

9 сезон

Бесстыжие 9 сезон

Все сериалы

все сериалы на PB.wtf

RePack

FAR CRY 5

Anonymous, добрый вечер, мы не успеваем собрать деньги на оплату серверов за декабрь и январь, помогите нам пожалуйста в это трудное время. В качестве благодарности мы отключим Вам всю рекламу на сайте (укажите свой ник в строку Ваше имя)!

×
  
Magnet ссылка

Тысяча лиц Дуньцзя в 3Д / The Thousand Faces of Dunjia 3D (Юэнь Ву-Пин / Yuen Woo-Ping) [2017, боевик, фэнтези, BDRip, 1080p] OverUnder / Вертикальная стереопара pb.wtf

Тысяча лиц Дуньцзя в 3Д через торрент pb.wtf

Размер: 25.1 GB | Добавлен: 2 года 3 мес. назад | Торрент скачан:31 раз
Скачать  

17-10-2018 12:17 Тысяча лиц Дуньцзя в 3Д Скачать торрент  

Тысяча лиц Дуньцзя / The Thousand Faces of Dunjia

Год выпуска: 2017
Страна: Китай, Гонконг (Acme Image, Film Can Production Ltd., Le Vision Pictures, Gravity Pictures, Shanghai Yoozoo, ...)
Жанр: боевик, фэнтези
Продолжительность: 01:52:40

Перевод: Любительский двухголосый закадровый(East Dream)
Русские субтитры: нет
Режиссер: Юэнь Ву-Пин / Yuen Woo-Ping

В ролях: Да Пэн, Ни Ни, Аариф Ли, Чжоу Дунъюй, У Бай, Ада Лю, Тайгер Сюй, Ян Ивэй, Се Мяо, Сунь Минмин

Описание: Испокон веков члены клана Уинь защищали Землю от вторжения монстров из других миров. Теперь им предстоит серьёзная битва с захватчиком и его пробуждённым сородичем, а этот тандем практически неуязвим. Один из членов клана обнаруживает заточённую в тюрьме загадочную девушку без прошлого. Она, а также юный констебль, случайно ввязавшийся в эту битву, могут помочь клану Уинь одержать победу.

Сэмпл: http://sendfile.su/1449215

Качество: BDrip, 1080p
Контейнер: MKV
Формат 3D: OverUnder / Вертикальная стереопара
Порядок ракурсов: левый ракурс первый
Видео кодек: x264
Аудио кодек: AC3
Видео: AVC / High@L5.0 / 23,976 fps / 1920х2160 / 30,4 Мбит/сек
Аудио: Русский / AC3 / 48 KHz / 5.1 ch / 640 Кбит/сек(East Dream) перемонтаж - Ash61

ВНИМАНИЕ ! На встроенных ТВ-плеерах работать не будет!!!

ТВ Samsung в названии которого есть надпись Ultra HD , и LG Ultra HD 800 серии, LG C6P, Xiaomi Mi TV 2 воспроизводят полные стереопары встроенными плеерами
Железные плееры на которых воспроизводятся полные стереопары:Popcorn C-200 , Dune HD Smart D1 , Dune HD DUO , Dune HD Smart H1 , Dune HD Smart B1 , Dune HD Max , Dune HD TV-303D, Dune HD TV-102, Dune HD Base 3D, Philips HMP7001, Aura HD, MECOOL BB2
Чтобы изображение было на весь экран в плеере выставляем, если рип 1920х1600 - то выставляем 2.35:1 , если 1920х2160 - то выставляем 16:9
Общее
Уникальный идентификатор : 241091951378227967666511337982609991081 (0xB5609EF017776004A40C5573192A25A9)
Полное имя : G:\видео\Qi men Dunjia.Rip by SeRoGa00.mkv
Формат : Matroska
Версия формата : Version 2
Размер файла : 25,1 Гбайт
Продолжительность : 1 ч. 53 м.
Общий поток : 31,7 Мбит/сек
Дата кодирования : UTC 2018-10-17 10:58:28
Программа кодирования : mkvmerge v3.4.0 ('Rapunzel') сборка от May 15 2010 09:38:20
Библиотека кодирования : libebml v0.8.0 + libmatroska v0.9.0

Видео
Идентификатор : 1
Формат : AVC
Формат/Информация : Advanced Video Codec
Профиль формата : High@L5.0
Параметр CABAC формата : Да
Параметр ReFrames формата : 4 кадра
Идентификатор кодека : V_MPEG4/ISO/AVC
Продолжительность : 1 ч. 53 м.
Битрейт : 30,4 Мбит/сек
Ширина : 1920 пикселей
Высота : 2160 пикселей
Соотношение сторон : 0,889
Частота кадров : 23,976 кадра/сек
Цветовое пространство : YUV
Субдискретизация насыщенности : 4:2:0
Битовая глубина : 8 бит
Тип развёртки : Прогрессивная
Бит/(Пиксели*Кадры) : 0.306
Размер потока : 24,1 Гбайт (96%)
Заголовок : Rip by SeRoGa00
Библиотека кодирования : x264 core 155 r2901 7d0ff22
Настройки программы : cabac=1 / ref=4 / deblock=1:-3:-3 / analyse=0x3:0x113 / me=umh / subme=10 / psy=1 / psy_rd=1.00:0.15 / mixed_ref=1 / me_range=24 / chroma_me=1 / trellis=2 / 8x8dct=1 / cqm=0 / deadzone=21,11 / fast_pskip=1 / chroma_qp_offset=-3 / threads=18 / lookahead_threads=6 / sliced_threads=0 / nr=0 / decimate=0 / interlaced=0 / bluray_compat=0 / constrained_intra=0 / bframes=10 / b_pyramid=2 / b_adapt=2 / b_bias=0 / direct=3 / weightb=1 / open_gop=0 / weightp=2 / keyint=250 / keyint_min=23 / scenecut=40 / intra_refresh=0 / rc_lookahead=60 / rc=crf / mbtree=1 / crf=16.5 / qcomp=0.60 / qpmin=10 / qpmax=69 / qpstep=4 / vbv_maxrate=40000 / vbv_bufsize=40000 / crf_max=0.0 / nal_hrd=none / filler=0 / ip_ratio=1.40 / aq=1:1.00
Язык : English
Default : Нет
Forced : Нет

Аудио
Идентификатор : 2
Формат : AC-3
Формат/Информация : Audio Coding 3
Расширение режима : CM (complete main)
Параметр Endianness формата : Big
Идентификатор кодека : A_AC3
Продолжительность : 1 ч. 53 м.
Вид битрейта : Постоянный
Битрейт : 640 Кбит/сек
Каналы : 6 каналов
Расположение каналов : Front: L C R, Side: L R, LFE
Частота : 48,0 КГц
Битовая глубина : 16 бит
Метод сжатия : С потерями
Размер потока : 519 Мбайт (2%)
Язык : Russian
Default : Да
Forced : Нет

Меню
00:00:00.000 : en:00:00:00.000
00:05:54.312 : en:00:05:54.312
00:09:08.089 : en:00:09:08.089
00:14:16.647 : en:00:14:16.647
00:20:13.295 : en:00:20:13.295
00:28:26.330 : en:00:28:26.330
00:39:10.265 : en:00:39:10.265
00:44:35.339 : en:00:44:35.339
00:48:14.183 : en:00:48:14.183
00:53:02.388 : en:00:53:02.388
01:01:55.295 : en:01:01:55.295
01:06:59.098 : en:01:06:59.098
01:11:56.771 : en:01:11:56.771
01:17:46.704 : en:01:17:46.704
01:25:04.141 : en:01:25:04.141
01:27:55.729 : en:01:27:55.729
01:36:03.091 : en:01:36:03.091
01:38:35.326 : en:01:38:35.326
01:43:15.022 : en:01:43:15.022
01:46:57.494 : en:01:46:57.494
скриншот  

скриншот  

скриншот  

скриншот  

скриншот  

скриншот  
pb.wtf



Скачать Тысяча лиц Дуньцзя в 3Д через торрент https://d.radikal.ru/d38/1810/ea/56581ea12df1.jpg Скачать фильм Тысяча лиц Дуньцзя в 3Д через торрент бесплантно в хорошем качестве Описание: Испокон веков члены клана Уинь защищали Землю от вторжения монстров из других миров. Теперь им предстоит серьёзная битва с ... 5 10 1
Торрент: Зарегистрирован [2018-10-17 12:17] · скачан: 31 раз
Статус: √ проверено
Размер: 25.1 GB
Как cкачать? Как скачать Тысяча лиц Дуньцзя в 3Д через торрент | UTorrent

28-11-2019 20:33  

Отключить всю рекламу на сайте

    Дорогой пользователь! Огромная просьба, поблагодарите релизера, оцените раздачу и оставьте свои комментарий, если Вы скачали Тысяча лиц Дуньцзя в 3Д через торрент бесплатно! Внесите свою лепту в развитие PiratBit!
    Комментировать посты могут только пользователи прошедшие не сложную регистрацию
    Показать сообщения:    

    Тысяча лиц Дуньцзя в 3Д через торрент
    Скачать бесплатно Тысяча лиц Дуньцзя в 3Д
    Тысяча лиц Дуньцзя в 3Д скачать торрент
    Тысяча лиц Дуньцзя в 3Д смотреть онлайн
    Cкачать фильм Тысяча лиц Дуньцзя в 3Д бесплатно
    Тысяча лиц Дуньцзя в 3Д скачать торрент в хорошем качестве
    Тысяча лиц Дуньцзя в 3Д смотреть онлайн бесплатно в хорошем качестве


    Вы не можете начинать темы
    Вы не можете отвечать на сообщения
    Вы не можете редактировать свои сообщения
    Вы не можете удалять свои сообщения
    Вы не можете голосовать в опросах
    Вы не можете прикреплять файлы к сообщениям
    Вы можете скачивать файлы