Всегда рабочее зеркало без VPN и Proxy просто перед .vidak.icu напиши любое слово или цифру, Пример http://gb74.vidak.icu

MVO

2 сезон

2 сезон

1

1 сезон

iTunes

2 сезон

13

1 сезон

Распродажа

pack

Рекомендуем

Пиратка

30

ВАЖНО

RePack

MK11

RePack

jed

RePack

fifa19

RePack

RDR2

RePack

NEED FOR SPEED™ PAYBACK

Кинопоиск HD

6 сезон

 Острые козырьки 6 сезон

Все сериалы

все сериалы на PB.wtf

RePack

FAR CRY 5

Anonymous, нам критически не хватает 5601 руб. на оплату серверов и переферии за Апрель, помоги нам пожалуйста, вся надежда только на тебя. В благодарность мы отключим тебе всю рекламу на сайте!

×
  
Magnet ссылка

Прочь / Get Out (Джордан Пил) [2017 г., ужасы, детектив, триллер, BDRip 1080p, HEVC (10bit), Дубляж (Лицензия)] pb.wtf

Прочь через торрент pb.wtf

Размер: 2.36 GB | Добавлен: 3 года 7 мес. назад | Торрент скачан:138 раз
Смотреть онлайн Прочь | Скачать    Ребята, помогите собрать деньги на оплату серверов!!!

17-10-2018 12:27 Прочь Скачать торрент  

Прочь / Get Out
Год выпуска: 2017
Страна: США
Жанр: ужасы, детектив, триллер
Продолжительность: 01:44:05
Перевод: Дубляж Лицензия
Субтитры: Русские (форсированные, полные), английские

Режиссер: Джордан Пил

rating

В ролях: Дэниэл Калуя, Эллисон Уильямс, Кэтрин Кинер, Брэдли Уитфорд, Калеб Лэндри Джонс

Описание: Знакомство с родителями подружки не предвещает молодому фотографу из Нью-Йорка ничего хорошего, ведь семья девушки принадлежит к элитному обществу и живет в уединенном загородном доме. Если бы он только знал истинную причину своего приглашения, то немедленно бросился бы прочь…
Доп. информация: -
H.265/HEVC (High Efficiency Video Coding) - это новый стандарт кодирования видео.
- Стандарт H.265/HEVC является логическим продолжением стандарта
H.264/AVC (Advanced Video Coding), и характеризуется более эффективными
алгоритмами сжатия, а также поддержкой высокого разрешения вплоть до 8K UHD
(8192x4320). Первая версия стандарта H.265 была опубликована в начале 2013 года.
- Рипы в фомате HEVC поддерживается не всеми аппаратными проигрывателями.
- Для корректного воспроизведения может потребоваться обновление ПО.
- Владельцам несовместимого железа просьба не беспокоить,
есть альтернативные релизы.
Качество: BDRip 1080p
Формат: MKV
Видео кодек: H.265
Аудио кодек: AC3
Видео: 1920x802, ~2353 Kbps
Аудио#1: AC3, 6 ch, 448 Kbps - Дублированный
Аудио#2: AC3, 6 ch, 448 Kbps - Английский
Релиз от: Мичман
Общее
Уникальный идентификатор : 71740146677023599850507131264950555192 (0x35F8A650C5F06F260F996C0C07475238)
Полное имя : F:\РАЗДАЧИ\Прочь. 2017. 1080р. HEVC. 10 bit..mkv
Формат : Matroska
Версия формата : Version 4 / Version 2
Размер файла : 2,36 Гбайт
Продолжительность : 1 ч. 44 м.
Общий поток : 3251 Кбит/сек
Дата кодирования : UTC 2018-10-17 07:44:51
Программа кодирования : mkvmerge v21.0.0 ('Tardigrades Will Inherit The Earth') 64-bit
Библиотека кодирования : libebml v1.3.5 + libmatroska v1.4.8
Обложка : Yes
Attachments : cover (2).jpg

Видео
Идентификатор : 1
Формат : HEVC
Формат/Информация : High Efficiency Video Coding
Профиль формата : Main 10@L4@Main
Идентификатор кодека : V_MPEGH/ISO/HEVC
Продолжительность : 1 ч. 44 м.
Битрейт : 2353 Кбит/сек
Ширина : 1920 пикселей
Высота : 802 пикселя
Соотношение сторон : 2,40:1
Режим частоты кадров : Постоянный
Частота кадров : 23,976 (24000/1001) кадра/сек
Цветовое пространство : YUV
Субдискретизация насыщенности : 4:2:0
Битовая глубина : 10 бит
Бит/(Пиксели*Кадры) : 0.064
Размер потока : 1,71 Гбайт (72%)
Библиотека кодирования : x265 2.4+96-58b4fa89c42d:[Windows][GCC 7.1.0][64 bit] 10bit
Настройки программы : cpuid=1105919 / frame-threads=9 / numa-pools=8 / wpp / no-pmode / no-pme / no-psnr / no-ssim / log-level=3 / input-csp=1 / input-res=1920x802 / interlace=0 / total-frames=0 / level-idc=0 / high-tier=1 / uhd-bd=0 / ref=3 / no-allow-non-conformance / no-repeat-headers / annexb / no-aud / no-hrd / info / hash=0 / no-temporal-layers / open-gop / min-keyint=23 / keyint=230 / bframes=4 / b-adapt=2 / b-pyramid / bframe-bias=0 / rc-lookahead=20 / lookahead-slices=5 / scenecut=40 / no-intra-refresh / ctu=64 / min-cu-size=8 / no-rect / no-amp / max-tu-size=32 / tu-inter-depth=1 / tu-intra-depth=1 / limit-tu=0 / rdoq-level=0 / dynamic-rd=0.00 / no-ssim-rd / signhide / no-tskip / nr-intra=0 / nr-inter=0 / no-constrained-intra / strong-intra-smoothing / max-merge=2 / limit-refs=3 / no-limit-modes / me=1 / subme=2 / merange=57 / temporal-mvp / weightp / no-weightb / no-analyze-src-pics / deblock=-2:-2 / sao / no-sao-non-deblock / rd=3 / no-early-skip / rskip / no-fast-intra / no-tskip-fast / no-cu-lossless / no-b-intra / rdpenalty=0 / psy-rd=2.00 / psy-rdoq=0.00 / no-rd-refine / analysis-reuse-mode=0 / no-lossless / cbqpoffs=0 / crqpoffs=0 / rc=crf / crf=20.0 / qcomp=0.60 / qpstep=4 / stats-write=0 / stats-read=0 / ipratio=1.40 / pbratio=1.30 / aq-mode=1 / aq-strength=1.00 / cutree / zone-count=0 / no-strict-cbr / qg-size=32 / no-rc-grain / qpmax=69 / qpmin=0 / no-const-vbv / sar=1 / overscan=0 / videoformat=5 / range=0 / colorprim=2 / transfer=2 / colormatrix=2 / chromaloc=0 / display-window=0 / max-cll=0,0 / min-luma=0 / max-luma=1023 / log2-max-poc-lsb=8 / vui-timing-info / vui-hrd-info / slices=1 / opt-qp-pps / opt-ref-list-length-pps / no-multi-pass-opt-rps / scenecut-bias=0.05 / no-opt-cu-delta-qp / no-aq-motion / no-hdr / no-hdr-opt / no-dhdr10-opt / analysis-reuse-level=5 / scale-factor=0 / refine-intra=0 / refine-inter=0 / refine-mv=0 / no-limit-sao / ctu-info=0
Default : Да
Forced : Нет
Цветовой диапазон : Limited

Аудио #1
Идентификатор : 2
Формат : AC-3
Формат/Информация : Audio Coding 3
Идентификатор кодека : A_AC3
Продолжительность : 1 ч. 44 м.
Вид битрейта : Постоянный
Битрейт : 448 Кбит/сек
Каналы : 6 каналов
Расположение каналов : Front: L C R, Side: L R, LFE
Частота : 48,0 КГц
Частота кадров : 31,250 кадров/сек (1536 SPF)
Битовая глубина : 16 бит
Метод сжатия : С потерями
Размер потока : 334 Мбайт (14%)
Язык : Russian
ServiceKind/String : Complete Main
Default : Да
Forced : Нет

Аудио #2
Идентификатор : 3
Формат : AC-3
Формат/Информация : Audio Coding 3
Идентификатор кодека : A_AC3
Продолжительность : 1 ч. 44 м.
Вид битрейта : Постоянный
Битрейт : 448 Кбит/сек
Каналы : 6 каналов
Расположение каналов : Front: L C R, Side: L R, LFE
Частота : 48,0 КГц
Частота кадров : 31,250 кадров/сек (1536 SPF)
Битовая глубина : 16 бит
Метод сжатия : С потерями
Размер потока : 334 Мбайт (14%)
Язык : English
ServiceKind/String : Complete Main
Default : Нет
Forced : Нет

Текст #1
Идентификатор : 4
Формат : UTF-8
Идентификатор кодека : S_TEXT/UTF8
Идентификатор кодека/Информация : UTF-8 Plain Text
Продолжительность : 1 ч. 40 м.
Битрейт : 0 бит/сек
ElementCount : 11
Размер потока : 435 байт (0%)
Заголовок : Forced
Язык : Russian
Default : Да
Forced : Нет

Текст #2
Идентификатор : 5
Формат : UTF-8
Идентификатор кодека : S_TEXT/UTF8
Идентификатор кодека/Информация : UTF-8 Plain Text
Продолжительность : 1 ч. 43 м.
Битрейт : 59 бит/сек
ElementCount : 1187
Размер потока : 45,2 Кбайт (0%)
Заголовок : Blu-ray CEE
Язык : Russian
Default : Нет
Forced : Нет

Текст #3
Идентификатор : 6
Формат : UTF-8
Идентификатор кодека : S_TEXT/UTF8
Идентификатор кодека/Информация : UTF-8 Plain Text
Продолжительность : 1 ч. 38 м.
Битрейт : 49 бит/сек
ElementCount : 1232
Размер потока : 35,6 Кбайт (0%)
Язык : English
Default : Нет
Forced : Нет

Меню
00:00:00.000 : :Глава 1
00:04:52.834 : :Глава 2
00:10:13.528 : :Глава 3
00:14:02.258 : :Глава 4
00:19:07.479 : :Глава 5
00:21:49.432 : :Глава 6
00:26:07.356 : :Глава 7
00:30:51.015 : :Глава 8
00:37:19.487 : :Глава 9
00:42:16.867 : :Глава 10
00:48:03.170 : :Глава 11
00:54:13.583 : :Глава 12
00:57:38.288 : :Глава 13
01:03:33.809 : :Глава 14
01:10:48.911 : :Глава 15
01:15:36.363 : :Глава 16
01:22:02.542 : :Глава 17
01:26:13.417 : :Глава 18
01:32:24.412 : :Глава 19
01:40:22.390 : :Глава 20
01:44:04.904 : :Глава 21

pb.wtf



Скачать Прочь через торрент https://c.radikal.ru/c11/1810/3c/4f7f7be6f3df.jpg Скачать, смотреть онлайн Прочь бесплантно в хорошем качестве Описание: Знакомство с родителями подружки не предвещает молодому фотографу из Нью-Йорка ничего хорошего, ведь семья девушки принадлежит к ... 7 10 1
Торрент: Зарегистрирован [2018-10-17 12:27] · скачан: 138 раз
Статус: √ проверено
Размер: 2.36 GB
Как cкачать? Как скачать Прочь через торрент | UTorrent

% Раздел Тема Автор DL S | L
Фильмы с авторской озвучкой [ 1.47 GB ] Прочь / Get Out [2017 BDRip] [AVO] killermax2013 Скачать
1 | 0
Фильмы до 2000 г. [ 934 MB ] Укуренные 7 / Прочь из моей комнаты! / Get Out of My Room [1985 музыка DVDRip] VO killermax2013 Скачать
1 | 0
Фильмы (Blu-ray, BD-Remux, HDDVD) [ 39.65 GB ] Прочь / Get Out [2017 Blu-Ray CEE 1080p] Russian Mafia Скачать
1 | 0
Ultra HD (UHD: 2K, 4K, 8K) — видео сверхвысокой чёткости [ 12.57 GB ] Прочь / Get Out [2017 UHD BDRip 2160p] DUB + MVO [AlexFilm] + AVO [M. Яроцкий] sheker187 Скачать
1 | 0
R.G. Resident & PiratVoice - Фильмы, Видео [ 5.65 GB ] Прочь / Get Out [2017 BDRip 720p] - + MVO + AVO - R.G.Resident schultz Скачать
1 | 0
Ultra HD (UHD: 2K, 4K, 8K) — видео сверхвысокой чёткости [ 61.91 GB ] Прочь / Get Out [2017 UHD BDRemux 2160p] MVO [AlexFilm] +2xAVO [Яроцкий Назаров] +DUB [] bober100 Скачать
2 | 0
Фильмы 2017 [DVDrip, WEB-DLRip, HDrip] (DUB, MVO) [ 1.46 GB ] Прочь / Get Out [2017 BDRip-AVC от sokol_ok] sokol_ok Скачать
1 | 0

28-11-2019 20:33  

Отключить всю рекламу на сайте

    Дорогой пользователь! Огромная просьба, поблагодарите релизера, оцените раздачу и оставьте свои комментарий, если Вы скачали Прочь через торрент бесплатно!
    Комментировать посты могут только пользователи прошедшие не сложную регистрацию
    Показать сообщения:    

    Прочь через торрент
    Скачать бесплатно Прочь
    Прочь скачать торрент
    Прочь смотреть онлайн
    Cкачать фильм Прочь бесплатно
    Прочь скачать торрент в хорошем качестве
    Прочь смотреть онлайн бесплатно в хорошем качестве


    Вы не можете начинать темы
    Вы не можете отвечать на сообщения
    Вы не можете редактировать свои сообщения
    Вы не можете удалять свои сообщения
    Вы не можете голосовать в опросах
    Вы не можете прикреплять файлы к сообщениям
    Вы можете скачивать файлы