Ссылка на приватное зеркало всего за 1$. Внимание количество ограничено!!!

OK

1+1

iTunes

мы

OK

1

WEB-DLRip

Джокер

Пифагор

Ведьмак / The Witcher сериал

iTunes

ПШазам

ОК

Оно 2

iTunes

30
pack

Вам бонус

ВАЖНО

!!Акция!!

Alien_RageХит недели

RePack

Resident Evil 21

ИГРА 18+

pack

RePack

jed

RePack

fifa19

RePack

Assassins Creed: Odyssey

RePack

NEED FOR SPEED™ PAYBACK

4 сезон

9 сезон

Бесстыжие 9 сезон

Все сериалы

все сериалы на PB.wtf

RePack

FAR CRY 5
  

Исправление / The Fix (Пэрис Боулдвин) [2015 г., драма, семейный, WEB-DLRip] MVO ["Синема УС"] pb.wtf

Исправление через торрент pb.wtf

Размер: 1.37 GB | Добавлен: 1 год 3 мес. назад | Торрент скачан:9 раз
Скачать  

17-10-2018 20:16 Исправление Скачать торрент  

Исправление / The FixГод выпуска: 2015
Страна: США
Жанр: драма, семейный
Продолжительность: 01:42:08
Перевод: Любительский (многоголосый) | "Синема УС"
Субтитры: отсутствуют

Режиссер: Пэрис Боулдвин

rating

В ролях:

Мета Голдинг, Блейн Грэй, Эрик Робертс, Азия Квин, Джереми Суарес, Вертон Р. Бэнкс, Виктория Бикс, Сузанна Бриск, Тимон Кайл

Описание:

Переживающая не лучшие времена официантка, балансирующая на грани наркотической зависимости, начинает видеть надежду на будущее, когда в ее жизни появляется дочь, от которой она отказалась сразу после ее рождения.

Качество: WEB-DLRip
Формат: AVI

Видео: XviD,1543 Кбит/с, 720x400
Аудио#1: Русский, (AC3, 2 ch, 384 Кбит/с)
скриншот  скриншот  скриншот  

Общее
Полное имя : D:\The.Fix.2O18.P.WEB-DLRip.14OOMB.avi
Формат : AVI
Формат/Информация : Audio Video Interleave
Размер файла : 1,37 Гбайт
Продолжительность : 1 ч. 42 м.
Общий поток : 1916 Кбит/сек
Программа кодирования : VirtualDubMod 1.5.10.2 (build 2540/release)
Библиотека кодирования : VirtualDubMod build 2540/release

Видео
Идентификатор : 0
Формат : MPEG-4 Visual
Профиль формата : Advanced Simple@L5
Параметр BVOP формата : 2
Параметр QPel формата : Нет
Параметр GMC формата : Без точки перехода
Параметр матрицы формата : Выборочная
Идентификатор кодека : XVID
Идентификатор кодека/Подсказка : XviD
Продолжительность : 1 ч. 42 м.
Битрейт : 1543 Кбит/сек
Ширина : 720 пикселей
Высота : 400 пикселей
Соотношение сторон : 16:9
Частота кадров : 23,976 (24000/1001) кадра/сек
Цветовое пространство : YUV
Субдискретизация насыщенности : 4:2:0
Битовая глубина : 8 бит
Тип развёртки : Прогрессивная
Метод сжатия : С потерями
Бит/(Пиксели*Кадры) : 0.221
Размер потока : 1,09 Гбайт (79%)
Библиотека кодирования : XviD 1.2.1 (UTC 2008-12-04)

Аудио
Идентификатор : 1
Формат : AC-3
Формат/Информация : Audio Coding 3
Расширение режима : CM (complete main)
Параметр Endianness формата : Big
Идентификатор кодека : 2000
Продолжительность : 1 ч. 42 м.
Вид битрейта : Постоянный
Битрейт : 384 Кбит/сек
Каналы : 2 канала
Расположение каналов : Front: L R
Частота : 48,0 КГц
Частота кадров : 31,250 кадров/сек (1536 spf)
Метод сжатия : С потерями
Размер потока : 281 Мбайт (20%)
Выравнивание : Разделение по промежуткам
Продолжительность промежутка : 42 мс. (1,00 видеокадр)
Время предзагрузки промежутка : 500 мс.
pb.wtf



Скачать Исправление через торрент http://img10.lostpic.net/2018/10/17/6b2a2b0b839430db25c24ae8c46eef2a.jpg Скачать фильм Исправление через торрент бесплантно в хорошем качестве Описание: Переживающая не лучшие времена официантка, балансирующая на грани наркотической зависимости, начинает видеть надежду на будущее, ... 10 10 3
Торрент: Зарегистрирован [2018-10-17 20:16] · скачан: 9 раз
Статус: T временная
Размер: 1.37 GB
Как cкачать? Как скачать Исправление через торрент | qTorrent

% Раздел Тема Автор DL S | L
T Фильмы (мультфильмы) cо спонсором показа (Новинки AVI/MKV) [ 3.85 GB ] Исправление / The Fix [2015 WEB-DL 720p] MVO ["Синема УС"] bober100 Скачать
1 | 0

28-11-2019 20:33  

Отключить всю рекламу на сайте

    Дорогой пользователь! Огромная просьба, поблагодарите релизера, оцените раздачу и оставьте свои комментарий, если Вы скачали Исправление через торрент бесплатно! Внесите свою лепту в развитие PiratBit!
    Комментировать посты могут только пользователи прошедшие не сложную регистрацию
    Показать сообщения:    

    Исправление через торрент
    Скачать бесплатно Исправление
    Исправление скачать торрент
    Исправление смотреть онлайн
    Cкачать фильм Исправление бесплатно
    Исправление скачать торрент в хорошем качестве
    Исправление смотреть онлайн бесплатно в хорошем качестве


    Вы не можете начинать темы
    Вы не можете отвечать на сообщения
    Вы не можете редактировать свои сообщения
    Вы не можете удалять свои сообщения
    Вы не можете голосовать в опросах
    Вы не можете прикреплять файлы к сообщениям
    Вы можете скачивать файлы