2 сезон

iTunes

MVO

1

2 сезон

iTunes

iTunes

1 сезон

RePack

30

Новинка

ВАЖНО

ИГРА 18+

pack

RePack

MK11
pack

Легкие деньги

RePack

jed

RePack

fifa19

RePack

RDR2

RePack

NEED FOR SPEED™ PAYBACK

4 сезон

9 сезон

Бесстыжие 9 сезон

Все сериалы

все сериалы на PB.wtf

RePack

FAR CRY 5

Anonymous, доброй ночи, мы не успеваем собрать деньги на оплату серверов за декабрь и январь, помогите нам пожалуйста в это трудное время. В качестве благодарности мы отключим Вам всю рекламу на сайте (укажите свой ник в строку Ваше имя)!

×
  
Magnet ссылка

Человек-муравей - Ant-Man (Пейтон Рид) [2015, фантастика, боевик, комедия, BDRip - HEVC 1080p 12 bit 60 FPS] Дубляж pb.wtf

Человек-муравей - Ant-Man через торрент pb.wtf

Размер: 15.71 GB | Добавлен: 2 года 3 мес. назад | Торрент скачан:37 раз
Скачать  

17-10-2018 20:50 Человек-муравей - Ant-Man Скачать торрент  

Человек-муравей / Ant-Man
««Рожденный ползать взлетит до небес»»

Год выпуска: 2015
Страна: США
Жанр: фантастика, боевик, комедия, приключения

Продолжительность: 01:57:06
Перевод: Дубляж
Субтитры: русские (Full)
Режиссер: Пейтон Рид
В ролях:

Пол Радд (Scott Lang / Ant-Man), Майкл Дуглас (Dr. Hank Pym), Эванджелин Лилли (Hope van Dyne), Кори Столл (Darren Cross / Yellowjacket), Майкл Пенья (Luis), Бобби Каннавале (Paxton), Ти-Ай (Dave), Давид Дастмалчян (Kurt), Эбби Райдер Фортсон (Cassie Lang), Джуди Грир (Maggie Lang), Энтони Маки (Sam Wilson / Falcon), Вуд Харрис (Gale)
Описание:
Вооружившись удивительной способностью уменьшаться в размере, но обладать при этом большой силой, мошенник Скотт Лэнг должен стать героем и помочь своему наставнику, доктору Хэнку Пиму, сохранить в тайне существование костюма Человека-муравья от угроз нового поколения.
Мировая премьера: 29 июня 2015

rating

Качество: BDRip 1080p by DD2D3
Формат: MKV
Видео кодек: V_MPEGH/ISO/HEVC
Аудио кодек: AC3
Видео: V_MPEGH/ISO/HEVC, 1920x1036 (1.85:1), 18555 kbps, 59,940 fps, 0,156 bpp
Аудио: русский / AC3 / 5.1 / 48 kHz / 640 kbps / ||
Навигация по главам: есть

General
Unique ID : 220724505511718761794833826842442569549 (0xA60DFE538F17A89B8EBCCCAD47C1974D)
Complete name : D:\Человек-муравей - Ant-Man (2015) BDRip - HEVC 1080p 12 bit 60 FPS.mkv
Format : Matroska
Format version : Version 4 / Version 2
File size : 15.7 GiB
Duration : 1 h 57 min
Overall bit rate : 19.2 Mb/s
Movie name : BLUEBIRD
Encoded date : UTC 2018-10-17 19:52:17
Writing application : mkvmerge v10.0.0 ('To Drown In You') 32bit
Writing library : libebml v1.3.4 + libmatroska v1.4.5
Attachments : poster

Video
ID : 1
Format : HEVC
Format/Info : High Efficiency Video Coding
Format profile : @L4.1@Main
Codec ID : V_MPEGH/ISO/HEVC
Duration : 1 h 57 min
Bit rate : 18.6 Mb/s
Width : 1 920 pixels
Height : 1 036 pixels
Display aspect ratio : 1.85:1
Frame rate mode : Constant
Frame rate : 59.940 (60000/1001) FPS
Color space : YUV
Chroma subsampling : 4:2:0
Bit depth : 12 bits
Bits/(Pixel*Frame) : 0.156
Stream size : 15.2 GiB (97%)
Writing library : x265 2.3+33-0b7d54dbb71a87a0:[Windows][MSVC 1800][64 bit] 12bit: KG7x [x265.ru]
Encoding settings : cpuid=1173503 / frame-threads=2 / numa-pools=4 / wpp / no-pmode / no-pme / no-psnr / no-ssim / log-level=2 / input-csp=1 / input-res=1920x1036 / interlace=0 / total-frames=421173 / level-idc=41 / high-tier=1 / uhd-bd=0 / ref=3 / no-allow-non-conformance / no-repeat-headers / annexb / no-aud / no-hrd / info / hash=0 / no-temporal-layers / open-gop / min-keyint=25 / keyint=250 / bframes=4 / b-adapt=2 / b-pyramid / bframe-bias=0 / rc-lookahead=20 / lookahead-slices=6 / scenecut=40 / no-intra-refresh / ctu=64 / min-cu-size=8 / no-rect / no-amp / max-tu-size=32 / tu-inter-depth=1 / tu-intra-depth=1 / limit-tu=0 / rdoq-level=0 / dynamic-rd=0.00 / no-ssim-rd / signhide / no-tskip / nr-intra=0 / nr-inter=0 / no-constrained-intra / strong-intra-smoothing / max-merge=2 / limit-refs=3 / no-limit-modes / me=1 / subme=2 / merange=57 / temporal-mvp / weightp / no-weightb / no-analyze-src-pics / deblock=0:0 / no-sao / no-sao-non-deblock / rd=3 / no-early-skip / no-rskip / no-fast-intra / no-tskip-fast / no-cu-lossless / no-b-intra / rdpenalty=0 / psy-rd=4.00 / psy-rdoq=0.00 / no-rd-refine / analysis-mode=0 / no-lossless / cbqpoffs=0 / crqpoffs=0 / rc=abr / bitrate=18556 / qcomp=0.60 / qpstep=1 / stats-write=0 / stats-read=2 / cplxblur=20.0 / qblur=0.5 / ipratio=1.10 / pbratio=1.00 / aq-mode=0 / aq-strength=0.00 / no-cutree / zone-count=0 / no-strict-cbr / qg-size=64 / rc-grain / qpmax=69 / qpmin=0 / sar=1 / overscan=0 / videoformat=5 / range=0 / colorprim=1 / transfer=1 / colormatrix=1 / chromaloc=0 / display-window=0 / max-cll=0,0 / min-luma=0 / max-luma=4095 / log2-max-poc-lsb=8 / vui-timing-info / vui-hrd-info / slices=1 / opt-qp-pps / opt-ref-list-length-pps / no-multi-pass-opt-rps / scenecut-bias=0.05 / no-opt-cu-delta-qp / no-aq-motion / no-hdr / no-hdr-opt / refine-level=5 / no-limit-sao
Default : Yes
Forced : No
Color range : Limited
Color primaries : BT.709
Transfer characteristics : BT.709
Matrix coefficients : BT.709

Audio
ID : 2
Format : AC-3
Format/Info : Audio Coding 3
Mode extension : CM (complete main)
Format settings, Endianness : Big
Codec ID : A_AC3
Duration : 1 h 57 min
Bit rate mode : Constant
Bit rate : 640 kb/s
Channel(s) : 6 channels
Channel positions : Front: L C R, Side: L R, LFE
Sampling rate : 48.0 kHz
Frame rate : 31.250 FPS (1536 spf)
Compression mode : Lossy
Stream size : 536 MiB (3%)
Language : Russian
Default : Yes
Forced : No

Text
ID : 3
Format : UTF-8
Codec ID : S_TEXT/UTF8
Codec ID/Info : UTF-8 Plain Text
Duration : 1 h 56 min
Bit rate : 87 b/s
Count of elements : 1537
Stream size : 74.8 KiB (0%)
Title : Full
Language : Russian
Default : No
Forced : No

Menu
00:00:00.000 : en:Chapter 01
00:02:08.837 : en:Chapter 02
00:08:40.186 : en:Chapter 03
00:15:24.841 : en:Chapter 04
00:19:59.740 : en:Chapter 05
00:27:50.210 : en:Chapter 06
00:33:07.235 : en:Chapter 07
00:38:53.957 : en:Chapter 08
00:44:36.465 : en:Chapter 09
00:49:22.459 : en:Chapter 10
00:57:44.252 : en:Chapter 11
01:00:48.812 : en:Chapter 12
01:06:31.529 : en:Chapter 13
01:23:21.288 : en:Chapter 14
01:34:20.530 : en:Chapter 15
01:47:34.239 : en:Chapter 16
скриншот  скриншот  скриншот  скриншот  скриншот  скриншот  
pb.wtf



Скачать Человек-муравей - Ant-Man через торрент http://funkyimg.com/i/2McL8.jpg Скачать фильм Человек-муравей - Ant-Man через торрент бесплантно в хорошем качестве Описание: Вооружившись удивительной способностью уменьшаться в размере, но обладать при этом большой силой, мошенник Скотт Лэнг должен ... 10 10 9
Info! Золотая раздача, скачанное не засчитывается.
Торрент: Зарегистрирован [2018-10-17 20:50] · скачан: 37 раз
Статус: √ проверено
Размер: 15.71 GB
Как cкачать? Как скачать Человек-муравей - Ant-Man через торрент | UTorrent

% Раздел Тема Автор DL S | L
? Оформление раздач (Кино, Видео и ТВ) [ 6.77 GB ] Человек-муравей / Ant-Man [2015 BDRip 720p / 60 FPS ] от mimok 50000 Скачать
1 | 0
Фильмы 2018 [DVDrip, WEB-DLRip, HDrip] (DUB, MVO) [ 1.45 GB ] Человек-муравей и Оса / Ant-Man and the Wasp [2018 BDRip-AVC] - [] - ExKinoRay Enigma2010 Скачать
3 | 0
Фильмы [HD 720p, 1080p] (Хороший звук DUB, MVO) [ 6.76 GB ] Человек-муравей / Ant-Man [2015 BDRip 1080p HEVC ()] Мичман37 Скачать
2 | 0
Фильмы [HD 720p, 1080p] (Хороший звук DUB, MVO) [ 5.68 GB ] Человек-муравей и Оса / Ant-Man and the Wasp [2018 BDRip 1080p HEVC ()] Мичман37 Скачать
2 | 0
Фильмы 2018 [DVDrip, WEB-DLRip, HDrip] (DUB, MVO) [ 1.46 GB ] Человек-муравей и Оса / Ant-Man and the Wasp [2018 BDRip] - [] Twi7ter Скачать
1 | 0
Фильмы 2018 [DVDrip, WEB-DLRip, HDrip] (DUB, MVO) [ 2.18 GB ] Человек-муравей и Оса / Ant-Man and the Wasp [2018 BDRip] - [] Twi7ter Скачать
1 | 0
Фильмы 2015 [DVDrip, WEB-DLRip, HDrip] [ 1.46 GB ] Человек-муравей / Ant-Man [2015 WEB-DLRip MihailHD Скачать
1 | 0

28-11-2019 20:33  

Отключить всю рекламу на сайте

28-06-2020 13:35 Человек-муравей - Ant-Man Скачать торрент  

Спасибо, найден размер лучше! pb.wtf



    Дорогой пользователь! Огромная просьба, поблагодарите релизера, оцените раздачу и оставьте свои комментарий, если Вы скачали Человек-муравей - Ant-Man через торрент бесплатно! Внесите свою лепту в развитие PiratBit!
    Комментировать посты могут только пользователи прошедшие не сложную регистрацию
    Показать сообщения:    

    Человек-муравей - Ant-Man через торрент
    Скачать бесплатно Человек-муравей - Ant-Man
    Человек-муравей - Ant-Man скачать торрент
    Человек-муравей - Ant-Man смотреть онлайн
    Cкачать фильм Человек-муравей - Ant-Man бесплатно
    Человек-муравей - Ant-Man скачать торрент в хорошем качестве
    Человек-муравей - Ant-Man смотреть онлайн бесплатно в хорошем качестве


    Вы можете начинать темы
    Вы можете отвечать на сообщения
    Вы не можете редактировать свои сообщения
    Вы не можете удалять свои сообщения
    Вы не можете голосовать в опросах
    Вы не можете прикреплять файлы к сообщениям
    Вы можете скачивать файлы