новый адрес
Ссылка на приватное зеркало всего за 1$. Внимание количество ограничено!!!

iTunes

1+1

iTunes

мы

iTunes

1

iTunes

Чернобыль

iTunes

Ральф против интернета

Лицензия

ПШазам

Лицензия

Оно 2

Лицензия

30
pack

Вам бонус

ВАЖНО

!!Акция!!

Alien_RageХит недели

RePack

Resident Evil 21

ИГРА 18+

pack

RePack

jed

!!Акция!!

Alien_Rage

RePack

fifa19

RePack

Assassins Creed: Odyssey

RePack

NEED FOR SPEED™ PAYBACK

3 сезон

9 сезон

Бесстыжие 9 сезон

Все сериалы

все сериалы на PB.wtf

RePack

FAR CRY 5
Ребята, катастрофически не хватает 1900р. для оплаты серверов за Октябрь (всвязи с блокировками трафик упал в 3 раза), 1-2р., выручайте.
  

Челюсти / Jaws (Стивен Спилберг) [1975 г., Ужасы, триллер, приключения, BDRip 720p, 4хMVO + 5xAVO] pb.wtf

Челюсти через торрент pb.wtf

Размер: 7.76 GB | Добавлен: 1 год 1 мес. назад | Торрент скачан:33 раза
Скачать  

18-10-2018 07:41 Челюсти Скачать торрент  

Челюсти / Jaws
Год выпуска: 1975
Страна: США
Жанр: Ужасы, триллер, приключения
Продолжительность: 02:04:01
Перевод: Профессиональный (многоголосый) +Профессиональный (многоголосый) Blu-ray +Профессиональный (многоголосый) НТВ +Профессиональный (многоголосый) Премьер Видео +Авторский А.Гаврилов +Авторский Г.Либергал +Авторский Ю.Живов (поздний) +Авторский Ю.Живов (ранний) +Авторский Ю.Товбин +Оригинал
Субтитры: Русские, английские

Режиссер: Стивен Спилберг

В ролях: Рой Шайдер, Роберт Шоу, Ричард Дрейфусс, Лоррэйн Гари, Мюррэй Хэмилтон, Карл Готтлиб, Джефри Крамер, Сьюзэн Бэклайни, Джонатан Филли, Тед Гроссман

Описание: Экранизация одноимённого произведения Питера Бенчли. Действие картины протекает в течение пяти дней — на острове Э́мити, где расположен небольшой курортный городок. В этом тихом и солнечном месте произошли ужасные трагические события, начало которым было положено ранним утром, когда шеф местной полиции Мартин Броуди и его помощник находят на берегу остатки тела девушки. Она стала первой жертвой огромной большой белой акулы, которая появилась у берегов Эмити… С каждым днем число жертв кровожадной акулы продолжает увеличиваться. Сможет ли отважный охотник на акул, ветеран Второй мировой войны, рыбак Квинт на своём судне выловить и убить акулу-людоеда? В опасную морскую экспедицию вместе с ним отправляются Мартин Броуди и прибывший на остров эксперт из национального института океанографии Мэтт Хупер.

Качество: BDRip (720p)
Формат: MKV
Видео кодек: AVC
Аудио кодек: AC3
Видео: MPEG-4 AVC, (1280x540),5751 Кбит/с, 23.976 кадра/сек
Аудио#1: AC3, 6 ch,448 kbps (Rus) 48.0 KHz Профессиональный (многоголосый) Blu-ray
Аудио#2: AC3, 2 ch,192 kbps (Rus) 48.0 KHz Профессиональный (многоголосый) НТВ
Аудио#3: AC3, 2 ch,192 kbps (Rus) 48.0 KHz Профессиональный (многоголосый) Премьер Видео
Аудио#4: AC3, 2 ch,192 kbps (Rus) 48.0 KHz Профессиональный (многоголосый)
Аудио#5: AC3, 6 ch,448 kbps (Rus) 48.0 KHz Авторский А.Гаврилов
Аудио#6: AC3, 6 ch,448 kbps (Rus) 48.0 KHz Авторский Г.Либергал
Аудио#7: AC3, 6 ch,448 kbps (Rus) 48.0 KHz Авторский Ю.Живов (поздний)
Аудио#8: AC3, 2 ch,192 kbps (Rus) 48.0 KHz Авторский Ю.Живов (ранний)
Аудио#9: AC3, 2 ch,192 kbps (Rus) 48.0 KHz Авторский Ю.Товбин
Аудио#10: AC3, 6 ch,448 kbps (Eng) 48.0 KHz Оригинал
скриншот   скриншот   скриншот  

Тип потока: Видео
Длительность: 02:04:00
Кодек: AVC
Кодек/описание: Advanced Video Codec
Кодек/профиль: High@L4.1
Кодек/ID: V_MPEG4/ISO/AVC
Кодек/CABAC: Yes
Кодек/ReFrames: 11 frames
Размеры изображения: 1280 x 540 (2.40:1)
Частота кадров: 23.976 fps
Частота кадров/тип: Constant
Размер потока: 4.83 GiB (62%)
Битрейт: 5 751 Kbps
Библиотека кодирования: x264 core 146 r2538 121396c
Цветовое пространство: YUV
Тип развёртки: Progressive
Колориметрия: 4:2:0
Глубина: 8 bits
:
Тип потока: Звук #1
Язык: Russian
Название: Многоголосый, Blu-ray
Длительность: 02:04:00.892
Кодек: AC-3
Кодек/описание: Audio Coding 3
Кодек/ID: A_AC3
Частота дискретизации: 48.0 KHz
Каналов: 6 channels
Битрейт: 448 Kbps
Битрейт/тип: Constant
Размер потока: 397 MiB (5%)
Глубина: 16 bits
Метод сжатия: Lossy
:
Тип потока: Звук #2
Язык: Russian
Название: Многоголосый, НТВ
Длительность: 02:04:00.892
Кодек: AC-3
Кодек/описание: Audio Coding 3
Кодек/ID: A_AC3
Частота дискретизации: 48.0 KHz
Каналов: 2 channels
Битрейт: 192 Kbps
Битрейт/тип: Constant
Размер потока: 170 MiB (2%)
Глубина: 16 bits
Метод сжатия: Lossy
:
Тип потока: Звук #3
Язык: Russian
Название: Многоголосый, Премьер Видео
Длительность: 02:04:00.892
Кодек: AC-3
Кодек/описание: Audio Coding 3
Кодек/ID: A_AC3
Частота дискретизации: 48.0 KHz
Каналов: 2 channels
Битрейт: 192 Kbps
Битрейт/тип: Constant
Размер потока: 170 MiB (2%)
Глубина: 16 bits
Метод сжатия: Lossy
:
Тип потока: Звук #4
Язык: Russian
Название: Многоголосый
Длительность: 02:04:00.892
Кодек: AC-3
Кодек/описание: Audio Coding 3
Кодек/ID: A_AC3
Частота дискретизации: 48.0 KHz
Каналов: 2 channels
Битрейт: 192 Kbps
Битрейт/тип: Constant
Размер потока: 170 MiB (2%)
Глубина: 16 bits
Метод сжатия: Lossy
:
Тип потока: Звук #5
Язык: Russian
Название: Авторский А.Гаврилов
Длительность: 02:04:00.892
Кодек: AC-3
Кодек/описание: Audio Coding 3
Кодек/ID: A_AC3
Частота дискретизации: 48.0 KHz
Каналов: 6 channels
Битрейт: 448 Kbps
Битрейт/тип: Constant
Размер потока: 397 MiB (5%)
Глубина: 16 bits
Метод сжатия: Lossy
:
Тип потока: Звук #6
Язык: Russian
Название: Авторский Г.Либергал
Длительность: 02:04:00.892
Кодек: AC-3
Кодек/описание: Audio Coding 3
Кодек/ID: A_AC3
Частота дискретизации: 48.0 KHz
Каналов: 6 channels
Битрейт: 448 Kbps
Битрейт/тип: Constant
Размер потока: 397 MiB (5%)
Глубина: 16 bits
Метод сжатия: Lossy
:
Тип потока: Звук #7
Язык: Russian
Название: Авторский Ю.Живов (поздний)
Длительность: 02:04:00.892
Кодек: AC-3
Кодек/описание: Audio Coding 3
Кодек/ID: A_AC3
Частота дискретизации: 48.0 KHz
Каналов: 6 channels
Битрейт: 448 Kbps
Битрейт/тип: Constant
Размер потока: 397 MiB (5%)
Глубина: 16 bits
Метод сжатия: Lossy
:
Тип потока: Звук #8
Язык: Russian
Название: Авторский Ю.Живов (ранний)
Длительность: 02:04:00.892
Кодек: AC-3
Кодек/описание: Audio Coding 3
Кодек/ID: A_AC3
Частота дискретизации: 48.0 KHz
Каналов: 2 channels
Битрейт: 192 Kbps
Битрейт/тип: Constant
Размер потока: 170 MiB (2%)
Глубина: 16 bits
Метод сжатия: Lossy
:
Тип потока: Звук #9
Язык: Russian
Название: Авторский Ю.Товбин
Длительность: 02:04:00.892
Кодек: AC-3
Кодек/описание: Audio Coding 3
Кодек/ID: A_AC3
Частота дискретизации: 48.0 KHz
Каналов: 2 channels
Битрейт: 192 Kbps
Битрейт/тип: Constant
Размер потока: 170 MiB (2%)
Глубина: 16 bits
Метод сжатия: Lossy
:
Тип потока: Звук #10
Язык: English
Название: Оригинал
Длительность: 02:04:00.892
Кодек: AC-3
Кодек/описание: Audio Coding 3
Кодек/ID: A_AC3
Частота дискретизации: 48.0 KHz
Каналов: 6 channels
Битрейт: 448 Kbps
Битрейт/тип: Constant
Размер потока: 397 MiB (5%)
Глубина: 16 bits
Метод сжатия: Lossy
:
Тип потока: Субтитры #1
Язык: Russian
Формат: UTF-8
Формат/подробно: UTF-8 Plain Text
Название: forced
:
Тип потока: Субтитры #2
Язык: Russian
Формат: UTF-8
Формат/подробно: UTF-8 Plain Text
Название: full
:
Тип потока: Субтитры #3
Язык: English
Формат: UTF-8
Формат/подробно: UTF-8 Plain Text
Название: full
:
Тип потока: Субтитры #4
Язык: English
Формат: UTF-8
Формат/подробно: UTF-8 Plain Text
Название: SDH

pb.wtf



Скачать Челюсти через торрент http://pic1.kartinco.top/images/11/rampx.jpg Скачать фильм Челюсти через торрент бесплантно в хорошем качестве Описание: Экранизация одноимённого произведения Питера Бенчли. Действие картины протекает в течение пяти дней — на острове Э́мити, где ... 9.9 10 10
Торрент: Зарегистрирован [2018-10-18 07:41] · скачан: 33 раз
Статус: √ проверено
Размер: 7.76 GB
Как cкачать? Как скачать Челюсти через торрент | qTorrent

% Раздел Тема Автор DL S | L
Документальные фильмы и телепередачи [ 625 MB ] Animal Planet: Летающие челюсти: прогулка с белыми акулами / Air Jaws. Walking With Great [2015 документальный HDTVRip] VO bober100 Скачать
1 | 0
Документальные фильмы и телепередачи [ 997 MB ] Animal Planet: Летающие челюсти: прогулка с белыми акулами / Air Jaws. Walking With Great [2015 документальный HDTVRip-AVC] VO bober100 Скачать
1 | 0
Документальные фильмы и телепередачи [ 3.53 GB ] Animal Planet: Летающие челюсти: прогулка с белыми акулами / Air Jaws. Walking With Great [2015 документальный HDTV 1080i] VO bober100 Скачать
1 | 0
Фильмы [HD 720p, 1080p] (Хороший звук DUB, MVO) [ 3.85 GB ] Челюсти 4: Месть / Jaws 4: The Revenge [1987 BDRip 720p 3xMVO + 3xAVO] Бумер Скачать
1 | 0
Фильмы [HD 720p, 1080p] (Хороший звук DUB, MVO) [ 4.37 GB ] Челюсти 3 / Jaws 3 [1983 BDRip ] Бумер Скачать
1 | 0
Фильмы [HD 720p, 1080p] (Хороший звук DUB, MVO) [ 4.71 GB ] Челюсти 2 / Jaws 2 [1978 BDRip 720p 4xMVO + 3xAVO] Бумер Скачать
1 | 0
Порно фильмы с сюжетом [ 1.35 GB ] Это не Челюсти / This Ain't Jaws XXX [2012 Hardcore Big Tits Parody Feature Cum On Tits Petite SkinnySiteRip Оригинальный] DJASFUL Скачать
1 | 0


>> Переходим по ссылке <<
Автоматически подгузится скрипт который настроит ваш браузер на выигрыш!!
После настройки браузера вероятность выигрыша увеличется в 4.1-4,6 раза.
В течение 6 секунд вам откроется настроенный интерфейс казино, с повышенной вероятностью выигрыша.






Отзывы и комментарии о схеме читаем и пишем здесь: ---> Отзывы и комментарии о схеме

Новые благодарочки в телеграм довольных пользователей:
скриншот   скриншот   скриншот   скриншот   скриншот
    Дорогой пользователь! Огромная просьба, поблагодарите релизера, оцените раздачу и оставьте свои комментарий, если Вы скачали Челюсти через торрент бесплатно! Внесите свою лепту в развитие PiratBit!
    Комментировать посты могут только пользователи прошедшие не сложную регистрацию
    Показать сообщения:    

    Челюсти через торрент
    Скачать бесплатно Челюсти
    Челюсти скачать торрент
    Челюсти смотреть онлайн
    Cкачать фильм Челюсти бесплатно
    Челюсти скачать торрент в хорошем качестве
    Челюсти смотреть онлайн бесплатно в хорошем качестве


    Вы не можете начинать темы
    Вы не можете отвечать на сообщения
    Вы не можете редактировать свои сообщения
    Вы не можете удалять свои сообщения
    Вы не можете голосовать в опросах
    Вы не можете прикреплять файлы к сообщениям
    Вы можете скачивать файлы