новый адрес пиратбит piratbit
Мега распродажа FORZA HORIZON 4 ULTIMATE+ВСЕ DLC+ОНЛАЙН всего за 499р. 349 руб. (супер цена). Внимание количество ограничено!!!

iTunes

1+1

iTunes

мы

iTunes

1

iTunes

Чернобыль

iTunes

Ральф против интернета

Лицензия

ПШазам

Лицензия

Игра престолов

Лицензия

30
pack

ВАЖНО

!!Акция!!

Alien_RageХит недели

RePack

Resident Evil 21

ИГРА 18+

pack

RePack

Metro:Exodus

!!Акция!!

Alien_Rage

RePack

fifa19

RePack

Assassins Creed: Odyssey

RePack

NEED FOR SPEED™ PAYBACK

3 сезон

9 сезон

Бесстыжие 9 сезон

Все сериалы

все сериалы на PB.wtf

RePack

FAR CRY 5
Ребята, катастрофически не хватает 1900р. для оплаты серверов за Октябрь (всвязи с блокировками трафик упал в 3 раза), 1-2р., выручайте.
  

Челюсти 3 / Jaws 3 (Джо Элвес) [1983 г., Ужасы, триллер, приключения, BDRip (720p), Профессиональный (многоголосый)] pb.wtf

Челюсти 3 через торрент pb.wtf

Размер: 4.37 GB | Добавлен: 1 год назад | Торрент скачан:29 раз
Скачать  

18-10-2018 09:53 Челюсти 3 Скачать торрент  

Челюсти 3 / Jaws 3
Год выпуска: 1983
Страна: США
Жанр: Ужасы, триллер, приключения
Продолжительность: 01:38:21
Перевод: Профессиональный (многоголосый)
Субтитры: нет

Режиссер: Джо Элвес

В ролях: Дэннис Куэйд, Бесс Армстронг, Луис Госсетт мл., Саймон МакКоркиндэйл, Джон Путч, Лиа Томпсон

Описание: На восточном побережье миллионер Кевин Бушар устроил грандиозный морской парк развлечений с воднолыжными акробатами, "подводным царством", экскурсиями на катерах и т.д. В это же время сотрудники морского исследовательского центра, расположенного неподалеку, обнаруживают тело одного из ныряльщиков, погибшего от зубов гигантской белой акулы. Трудно поверить, но у этого монстра к ученым свой счет, - акула мстит за своего погибшего детеныша...

Качество: BDRip (720p)
Формат: MKV
Видео кодек: AVC
Аудио кодек: DTS
Видео: MPEG-4 AVC, (1280x536),5599 Кбит/с, 23.976 кадра/сек
Аудио#1: DTS, 6 ch, 768 kbps (Rus) 48.0 KHz профессиональный (многоголосый)
скриншот   скриншот   скриншот  

Тип потока: Видео
Длительность: 01:38:20
Кодек: AVC
Кодек/описание: Advanced Video Codec
Кодек/профиль: High@L4.1
Кодек/ID: V_MPEG4/ISO/AVC
Кодек/CABAC: Yes
Кодек/ReFrames: 9 frames
Размеры изображения: 1280 x 536 (2.40:1)
Частота кадров: 23.976 fps
Частота кадров/тип: Constant
Размер потока: 3.76 GiB (86%)
Битрейт: 5 599 Kbps
Библиотека кодирования: x264 core 146 r2538 121396c
Цветовое пространство: YUV
Тип развёртки: Progressive
Колориметрия: 4:2:0
Глубина: 8 bits
:
Тип потока: Звук #1
Язык: Russian
Длительность: 01:38:20.854
Кодек: DTS
Кодек/описание: Digital Theater Systems
Кодек/ID: A_DTS
Частота дискретизации: 48.0 KHz
Каналов: 6 channels
Битрейт: 768 Kbps
Битрейт/тип: Constant
Размер потока: 540 MiB (12%)
Глубина: 24 bits
Метод сжатия: Lossy

pb.wtf



Скачать Челюсти 3 через торрент http://pic1.kartinco.top/images/11/y8kd7.jpg Скачать фильм Челюсти 3 через торрент бесплантно в хорошем качестве Описание: На восточном побережье миллионер Кевин Бушар устроил грандиозный морской парк развлечений с воднолыжными акробатами, "подводным ... 10 10 5
Торрент: Зарегистрирован [2018-10-18 09:53] · скачан: 29 раз
Статус: √ проверено
Размер: 4.37 GB
Как cкачать? Как скачать Челюсти 3 через торрент | qTorrent

% Раздел Тема Автор DL S | L
Фильмы до 2000 г. [ 700 MB ] Челюсти 3 / Jaws 3 [1983 DVDRip Пиратка] ЕВГЕНИЙ ОЛЕГОВИЧ Скачать
1 | 0


>> Регистрируемся здесь <<






Отзывы и комментарии о схеме читаем и пишем здесь: ---> Отзывы и комментарии о схеме

Новые благодарочки в телеграм довольных пользователей:
скриншот   скриншот   скриншот   скриншот   скриншот
    Дорогой пользователь! Огромная просьба, поблагодарите релизера, оцените раздачу и оставьте свои комментарий, если Вы скачали Челюсти 3 через торрент бесплатно! Внесите свою лепту в развитие PiratBit!
    Комментировать посты могут только пользователи прошедшие не сложную регистрацию
    Показать сообщения:    

    Челюсти 3 через торрент
    Скачать бесплатно Челюсти 3
    Челюсти 3 скачать торрент
    Челюсти 3 смотреть онлайн
    Cкачать фильм Челюсти 3 бесплатно
    Челюсти 3 скачать торрент в хорошем качестве
    Челюсти 3 смотреть онлайн бесплатно в хорошем качестве


    Вы не можете начинать темы
    Вы не можете отвечать на сообщения
    Вы не можете редактировать свои сообщения
    Вы не можете удалять свои сообщения
    Вы не можете голосовать в опросах
    Вы не можете прикреплять файлы к сообщениям
    Вы можете скачивать файлы