Ссылка на приватное зеркало нашего сайта всего за 1$. Внимание количество ограничено!!!

2 сезон

iTunes

1 сезон

1

2 сезон

2 сезон

iTunes

1 сезон

RePack

30

Новинка

ВАЖНО

ИГРА 18+

pack

RePack

MK11
pack

Забери бонус

RePack

jed

!!Акция!!

Alien_Rage

RePack

fifa19

RePack

Assassins Creed: Odyssey

RePack

NEED FOR SPEED™ PAYBACK

4 сезон

9 сезон

Бесстыжие 9 сезон

Все сериалы

все сериалы на PB.wtf

RePack

FAR CRY 5
  

Слепая зона / Слепое пятно / Blindspot / Сезон: 4 / Серии: 1-22 из 22 (Марк Пеллингтон, Стив Шилл, Маркос Сига, Карен Гавиола, Роб Харди) [2018, Боевик, триллер, драма, WEB-DLRip] MVO [AlexFilm] pb.wtf

Слепая зона через торрент pb.wtf

Размер: 10.81 GB | Добавлен: 1 год 5 мес. назад | Торрент скачан:28 раз
Скачать  

18-10-2018 10:02 Слепая зона Скачать торрент  

Слепая зона / Слепое пятно / Blindspot Год выпуска: 2018
Страна: США
Жанр: Боевик, триллер, драма
Продолжительность: ~ 00:42:00
Перевод: Профессиональный многоголосый | Alexfilm
Субтитры: отсутствуют

Режиссер: Марк Пеллингтон, Стив Шилл, Маркос Сига, Карен Гавиола, Роб Харди

rating

В ролях:

Джейми Александер, Салливан Степлтон, Одри Эспарза, Роб Браун, Эшли Джонсон, Аквели Роач, Марианн Жан-Баптист, Майкл Гэстон, Франсуа Арно, Джей О. Сандерс, Джо Диникол, Джонни Витуорт, Джордана Спиро

Описание:

В четвертом сезоне Джейн и ее коллеги продолжают борьбу с преступностью, используя татуировки на теле Джейн в качестве ключей к разгадке.
Молодая девушка просыпается в большой застегнутой сумке прямо центре Нью-Йорка. Она не помнит ничего из своего прошлого и не понимает, как оказалась в центре мегаполиса. Полиция пытается установить личность главной героини, но сделать это непросто, ведь в момент обнаружения на девушке не было даже одежды. Но зато тело полностью покрыто сетью причудливых татуировок, которые наверняка должны что-то означать… Возможный ключ к разгадке дает имя агента ФБР, выбитое на спине таинственной незнакомки. Кроме того, выясняется, что главная героиня отлично владеет техникой восточных единоборств и знает несколько иностранных языков. Позже становится понятно, что каждая, даже самая мелкая отметка на теле девушки, является подсказкой в череде странных преступлений.

Качество: WEB-DLRip
Формат: AVI

Видео: XviD, ~ 1500 Кбит/с, 720х400
Аудио#1: Русский (MP3, 2 ch, 128 Кбит/с)
Аудио#2: английский (MP3, 2 ch, 128 Кбит/с)
скриншот  скриншот  скриншот  

Общее
Полное имя : D:\Blindspot - Season 4 (AlexFilm) WEB-DLRip\Blindspot.s04e01.WEB-DLRip.Rus.Eng.AlexFilm.avi
Формат : AVI
Формат/Информация : Audio Video Interleave
Размер файла : 504 Мбайт
Продолжительность : 43 м. 1 с.
Общий поток : 1638 Кбит/сек
Название фильма : Blindspot 4x01 @ AlexFilm
Программа кодирования : VirtualDubMod 1.5.10.2 (build 2540/release)
Библиотека кодирования : VirtualDubMod build 2540/release

Видео
Идентификатор : 0
Формат : MPEG-4 Visual
Профиль формата : Advanced Simple@L5
Параметр BVOP формата : Нет
Параметр QPel формата : Нет
Параметр GMC формата : Без точки перехода
Параметр матрицы формата : Default (MPEG)
Идентификатор кодека : XVID
Идентификатор кодека/Подсказка : XviD
Продолжительность : 43 м. 1 с.
Битрейт : 1368 Кбит/сек
Ширина : 720 пикселей
Высота : 400 пикселей
Соотношение сторон : 16:9
Частота кадров : 23,976 (23976/1000) кадра/сек
Цветовое пространство : YUV
Субдискретизация насыщенности : 4:2:0
Битовая глубина : 8 бит
Тип развёртки : Прогрессивная
Метод сжатия : С потерями
Бит/(Пиксели*Кадры) : 0.198
Размер потока : 421 Мбайт (84%)
Библиотека кодирования : XviD 67

Аудио #1
Идентификатор : 1
Формат : MPEG Audio
Версия формата : Version 1
Профиль формата : Layer 3
Режим : Joint stereo
Расширение режима : MS Stereo
Идентификатор кодека : 55
Идентификатор кодека/Подсказка : MP3
Продолжительность : 43 м. 1 с.
Вид битрейта : Постоянный
Битрейт : 128 Кбит/сек
Каналы : 2 канала
Частота : 48,0 КГц
Метод сжатия : С потерями
Размер потока : 39,4 Мбайт (8%)
Выравнивание : Соединение по промежуткам
Продолжительность промежутка : 42 мс. (1,00 видеокадр)
Время предзагрузки промежутка : 504 мс.
Заголовок : Russian (AlexFilm)
Библиотека кодирования : LAMEяяыяяяяя/яяЇяђы

Аудио #2
Идентификатор : 2
Формат : MPEG Audio
Версия формата : Version 1
Профиль формата : Layer 3
Режим : Joint stereo
Расширение режима : MS Stereo
Идентификатор кодека : 55
Идентификатор кодека/Подсказка : MP3
Продолжительность : 43 м. 1 с.
Вид битрейта : Постоянный
Битрейт : 128 Кбит/сек
Каналы : 2 канала
Частота : 48,0 КГц
Метод сжатия : С потерями
Размер потока : 39,4 Мбайт (8%)
Выравнивание : Соединение по промежуткам
Продолжительность промежутка : 42 мс. (1,00 видеокадр)
Время предзагрузки промежутка : 504 мс.
Заголовок : English
Библиотека кодирования : LAME3.90.3

Внимание! Раздача ведётся путём добавления новых серий; при каждом добавлении создfётся новый торрент. Чтобы начать докачку новой серии, пользователям необходимо сделать следующее: (1) остановить скачивание, (2) удалить старый торрент у себя из клиента (старые серии удалять не надо), (3) скачать новый торрент и запустить его у себя в клиенте вместо старого, при этом указать клиенту путь в старую папку куда и должно происходить скачивание новых серий.

Ваш клиент при этом должен произвести хеширование (проверку) старой папки (если не производит сам - помогите ему сделать это), и будет докачивать только те серии которых у вас ещё нет. Старые серии при этом не удаляются, а продолжают раздаваться!

Eсли вы уже удалили старые серии, то предотвратить повторную закачку старых серий можно, отжав галочку в соответсвующих местах при запуске нового торрен
pb.wtf



Скачать Слепая зона через торрент http://i70.fastpic.ru/big/2015/0922/97/adb775df71db5fed79bf7bc107bdc697.png Скачать фильм Слепая зона через торрент бесплантно в хорошем качестве Описание: В четвертом сезоне Джейн и ее коллеги продолжают борьбу с преступностью, используя татуировки на теле Джейн в качестве ключей к ... 10 10 4
Торрент: Зарегистрирован [2019-06-08 16:50] · скачан: 28 раз
Статус: √ проверено
Размер: 10.81 GB
Как cкачать? Как скачать Слепая зона через торрент | qTorrent

% Раздел Тема Автор DL S | L
Зарубежные сериалы [ 28.61 GB ] Слепая зона / Слепое пятно / Blindspot / Сезон: 4 / Серии: 1-22 из 22 [2018 WEB-DL 720p] MVO [Lostfilm] bober100 Скачать
1 | 0
Зарубежные сериалы [ 26.23 GB ] Слепая зона / Слепое пятно / Blindspot / Сезон: 4 / Серии: 1-22 из 22 [2018 WEB-DL 720p] MVO [Jaskier] bober100 Скачать
1 | 0
Зарубежные сериалы [ 11.76 GB ] Слепая зона / Слепое пятно / Blindspot / Сезон: 4 / Серии: 1-22 из 22 [2018 WEB-DLRip] MVO [Jaskier] bober100 Скачать
1 | 0
Зарубежные сериалы [ 12.3 GB ] Слепая зона / Слепое пятно / Blindspot / Сезон: 4 / Серии: 1-22 из 22 [2018 WEB-DLRip] MVO [Lostfilm] bober100 Скачать
1 | 0
Зарубежные сериалы [ 28.61 GB ] Слепая зона / Слепое пятно / Blindspot / Сезон: 4 / Серии: 1-22 из 22 [2018 WEB-DL 720p] MVO [AlexFilm] bober100 Скачать
1 | 0


Последний раз редактировалось: bober100 (2019-06-08 16:50), всего редактировалось 1 раз

28-11-2019 20:33  

Отключить всю рекламу на сайте

09-04-2019 18:53 Слепая зона Скачать торрент  

bober100 писал(а):

bober100

Не подскажешь когда остальные серии будут?pb.wtf



    Дорогой пользователь! Огромная просьба, поблагодарите релизера, оцените раздачу и оставьте свои комментарий, если Вы скачали Слепая зона через торрент бесплатно! Внесите свою лепту в развитие PiratBit!
    Комментировать посты могут только пользователи прошедшие не сложную регистрацию
    Показать сообщения:    

    Слепая зона через торрент
    Скачать бесплатно Слепая зона
    Слепая зона скачать торрент
    Слепая зона смотреть онлайн
    Cкачать фильм Слепая зона бесплатно
    Слепая зона скачать торрент в хорошем качестве
    Слепая зона смотреть онлайн бесплатно в хорошем качестве


    Вы не можете начинать темы
    Вы не можете отвечать на сообщения
    Вы не можете редактировать свои сообщения
    Вы не можете удалять свои сообщения
    Вы не можете голосовать в опросах
    Вы не можете прикреплять файлы к сообщениям
    Вы можете скачивать файлы