новый адрес пиратбит piratbit
Мега распродажа FORZA HORIZON 4 ULTIMATE+ВСЕ DLC+ОНЛАЙН всего за 499р. 349 руб. (супер цена). Внимание количество ограничено!!!

iTunes

1+1

iTunes

мы

iTunes

1

iTunes

Чернобыль

iTunes

Ральф против интернета

Лицензия

ПШазам

Лицензия

Игра престолов

Лицензия

30
pack

ВАЖНО

!!Акция!!

Alien_RageХит недели

RePack

Resident Evil 21

ИГРА 18+

pack

RePack

Metro:Exodus

!!Акция!!

Alien_Rage

RePack

fifa19

RePack

Assassins Creed: Odyssey

RePack

NEED FOR SPEED™ PAYBACK

3 сезон

9 сезон

Бесстыжие 9 сезон

Все сериалы

все сериалы на PB.wtf

RePack

FAR CRY 5
Ребята, катастрофически не хватает 1900р. для оплаты серверов за Октябрь (всвязи с блокировками трафик упал в 3 раза), 1-2р., выручайте.
  

Челюсти 4: Месть / Jaws 4: The Revenge (Джозеф Сарджент) [1987 г., Ужасы, триллер, приключения, BDRip 720p, 3xMVO + 3xAVO] pb.wtf

Челюсти 4: Месть через торрент pb.wtf

Размер: 3.85 GB | Добавлен: 1 год назад | Торрент скачан:34 раза
Скачать  

18-10-2018 10:25 Челюсти 4: Месть Скачать торрент  

Челюсти 4: Месть / Jaws 4: The Revenge
Год выпуска: 1987
Страна: США
Жанр: Ужасы, триллер, приключения
Продолжительность: 01:30:10
Перевод: Профессиональный (многоголосый) +Профессиональный (многоголосый) ОРТ +Профессиональный (многоголосый) СТС +авторский Ю.Живов +авторский А.Готлиб +авторский А.Гаврилов +Оригинал
Субтитры: Русские, английские

Режиссер: Джозеф Сарджент

В ролях: Лоррэйн Гари, Лэнс Гест, Марио Ван Пиблз, Карен Янг, Майкл Кейн, Джудит Барси, Митчелл Андерсон, Линн Уитфилд, Джей Мелло, Седрик Скотт

Описание: Герой первых трех серий шеф полиции Мартин Броди умирает от сердечного приступа. Его младший сын погибает, столкнувшись с большой белой акулой. Мать Шона Эллен убеждена, что акула мстит ее семье. Миссис Броди летит на Багамы, где ее старший сын Майкл работает морским биологом, чтобы предупредить об опасности...

Качество: BDRip (720p)
Формат: MKV
Видео кодек: AVC
Аудио кодек: AC3
Видео: MPEG-4 AVC, (1280x544),4265 Кбит/с, 23.976 кадра/сек
Аудио#1: AC3, 6 ch,448 kbps (Rus) 48.0 KHz Профессиональный (многоголосый)
Аудио#2: AC3, 2 ch,192 kbps (Rus) 48.0 KHz Профессиональный (многоголосый) ОРТ
Аудио#3: AC3, 2 ch,192 kbps (Rus) 48.0 KHz Профессиональный (многоголосый) СТС
Аудио#4: AC3, 2 ch,192 kbps (Rus) 48.0 KHz авторский Ю.Живов
Аудио#5: AC3, 2 ch,192 kbps (Rus) 48.0 KHz авторский А.Готлиб
Аудио#6: AC3, 2 ch,192 kbps (Rus) 48.0 KHz авторский А.Гаврилов
Аудио#7: AC3, 6 ch,448 kbps (Eng) 48.0 KHz Оригинал
скриншот   скриншот   скриншот  

Тип потока: Видео
Длительность: 01:30:10
Кодек: AVC
Кодек/описание: Advanced Video Codec
Кодек/профиль: High@L4.1
Кодек/ID: V_MPEG4/ISO/AVC
Кодек/CABAC: Yes
Кодек/ReFrames: 10 frames
Размеры изображения: 1280 x 544 (2.35:1)
Частота кадров: 23.976 fps
Частота кадров/тип: Constant
Размер потока: 2.61 GiB (68%)
Битрейт: 4 265 Kbps
Библиотека кодирования: x264 core 146 r2538 121396c
Цветовое пространство: YUV
Тип развёртки: Progressive
Колориметрия: 4:2:0
Глубина: 8 bits
:
Тип потока: Звук #1
Язык: Russian
Название: Многоголосый
Длительность: 01:30:10.720
Кодек: AC-3
Кодек/описание: Audio Coding 3
Кодек/ID: A_AC3
Частота дискретизации: 48.0 KHz
Каналов: 6 channels
Битрейт: 448 Kbps
Битрейт/тип: Constant
Размер потока: 289 MiB (7%)
Глубина: 16 bits
Метод сжатия: Lossy
:
Тип потока: Звук #2
Язык: Russian
Название: Профессиональный (многоголосый закадровый) ОРТ
Длительность: 01:30:10.720
Кодек: AC-3
Кодек/описание: Audio Coding 3
Кодек/ID: A_AC3
Частота дискретизации: 48.0 KHz
Каналов: 2 channels
Битрейт: 192 Kbps
Битрейт/тип: Constant
Размер потока: 124 MiB (3%)
Глубина: 16 bits
Метод сжатия: Lossy
:
Тип потока: Звук #3
Язык: Russian
Название: Профессиональный (многоголосый закадровый) СТС
Длительность: 01:30:10.720
Кодек: AC-3
Кодек/описание: Audio Coding 3
Кодек/ID: A_AC3
Частота дискретизации: 48.0 KHz
Каналов: 2 channels
Битрейт: 192 Kbps
Битрейт/тип: Constant
Размер потока: 124 MiB (3%)
Глубина: 16 bits
Метод сжатия: Lossy
:
Тип потока: Звук #4
Язык: Russian
Название: Авторский (одноголосый закадровый) Юрий Живов
Длительность: 01:30:10.720
Кодек: AC-3
Кодек/описание: Audio Coding 3
Кодек/ID: A_AC3
Частота дискретизации: 48.0 KHz
Каналов: 2 channels
Битрейт: 192 Kbps
Битрейт/тип: Constant
Размер потока: 124 MiB (3%)
Глубина: 16 bits
Метод сжатия: Lossy
:
Тип потока: Звук #5
Язык: Russian
Название: Авторский (одноголосый закадровый) Александр Готлиб
Длительность: 01:30:10.720
Кодек: AC-3
Кодек/описание: Audio Coding 3
Кодек/ID: A_AC3
Частота дискретизации: 48.0 KHz
Каналов: 2 channels
Битрейт: 192 Kbps
Битрейт/тип: Constant
Размер потока: 124 MiB (3%)
Глубина: 16 bits
Метод сжатия: Lossy
:
Тип потока: Звук #6
Язык: Russian
Название: Авторский (одноголосый закадровый) Андрей Гаврилов
Длительность: 01:30:10.720
Кодек: AC-3
Кодек/описание: Audio Coding 3
Кодек/ID: A_AC3
Частота дискретизации: 48.0 KHz
Каналов: 2 channels
Битрейт: 192 Kbps
Битрейт/тип: Constant
Размер потока: 124 MiB (3%)
Глубина: 16 bits
Метод сжатия: Lossy
:
Тип потока: Звук #7
Язык: English
Длительность: 01:30:10.720
Кодек: AC-3
Кодек/описание: Audio Coding 3
Кодек/ID: A_AC3
Частота дискретизации: 48.0 KHz
Каналов: 6 channels
Битрейт: 448 Kbps
Битрейт/тип: Constant
Размер потока: 289 MiB (7%)
Глубина: 16 bits
Метод сжатия: Lossy
:
Тип потока: Субтитры #1
Язык: English
Формат: UTF-8
Формат/подробно: UTF-8 Plain Text
:
Тип потока: Субтитры #2
Язык: Russian
Формат: UTF-8
Формат/подробно: UTF-8 Plain Text

pb.wtf



Скачать Челюсти 4: Месть через торрент http://pic1.kartinco.top/images/11/53tln.jpg Скачать фильм Челюсти 4: Месть через торрент бесплантно в хорошем качестве Описание: Герой первых трех серий шеф полиции Мартин Броди умирает от сердечного приступа. Его младший сын погибает, столкнувшись с большой ... 10 10 5
Торрент: Зарегистрирован [2018-10-18 10:25] · скачан: 34 раз
Статус: √ проверено
Размер: 3.85 GB
Как cкачать? Как скачать Челюсти 4: Месть через торрент | qTorrent

% Раздел Тема Автор DL S | L
Фильмы до 2000 г. [ 700 MB ] Челюсти 4 - Месть / Jaws 4 The Revenge [1987 DVDRip Пиратка] ЕВГЕНИЙ ОЛЕГОВИЧ Скачать
1 | 0


>> Регистрируемся здесь <<






Отзывы и комментарии о схеме читаем и пишем здесь: ---> Отзывы и комментарии о схеме

Новые благодарочки в телеграм довольных пользователей:
скриншот   скриншот   скриншот   скриншот   скриншот
    Дорогой пользователь! Огромная просьба, поблагодарите релизера, оцените раздачу и оставьте свои комментарий, если Вы скачали Челюсти 4: Месть через торрент бесплатно! Внесите свою лепту в развитие PiratBit!
    Комментировать посты могут только пользователи прошедшие не сложную регистрацию
    Показать сообщения:    

    Челюсти 4: Месть через торрент
    Скачать бесплатно Челюсти 4: Месть
    Челюсти 4: Месть скачать торрент
    Челюсти 4: Месть смотреть онлайн
    Cкачать фильм Челюсти 4: Месть бесплатно
    Челюсти 4: Месть скачать торрент в хорошем качестве
    Челюсти 4: Месть смотреть онлайн бесплатно в хорошем качестве


    Вы не можете начинать темы
    Вы не можете отвечать на сообщения
    Вы не можете редактировать свои сообщения
    Вы не можете удалять свои сообщения
    Вы не можете голосовать в опросах
    Вы не можете прикреплять файлы к сообщениям
    Вы можете скачивать файлы