Ссылка на приватное зеркало всего за 1$. Внимание количество ограничено!!!

OK

1+1

iTunes

мы

OK

1

WEB-DLRip

Джокер

Пифагор

Ведьмак / The Witcher сериал

iTunes

ПШазам

ОК

Оно 2

iTunes

30
pack

Вам бонус

ВАЖНО

!!Акция!!

Alien_RageХит недели

RePack

Resident Evil 21

ИГРА 18+

pack

RePack

jed

RePack

fifa19

RePack

Assassins Creed: Odyssey

RePack

NEED FOR SPEED™ PAYBACK

4 сезон

9 сезон

Бесстыжие 9 сезон

Все сериалы

все сериалы на PB.wtf

RePack

FAR CRY 5
  

Без совести / Diu xin / Lost Conscience (Сяопин Ванг) [2018, драма, криминал, WEB-DL 720p] MVO [КОЛОБОК] pb.wtf

Без совести через торрент pb.wtf

Размер: 3.98 GB | Добавлен: 1 год 3 мес. назад | Торрент скачан:11 раз
Скачать  

18-10-2018 12:12 Без совести Скачать торрент  

Без совести / Diu xin / Lost ConscienceГод выпуска: 2018
Страна: Китай
Жанр: драма, криминал
Продолжительность: 01:45:04
Перевод: Любительский (многоголосый) | КОЛОБОК
Субтитры: отсутствуют

Режиссер: Сяопин Ванг

rating

В ролях:

Чэнь Ихэн

Описание:

Парень из деревни отправляется в город, но не выдерживает его соблазнов и испытаний, в итоге поступаясь собственной совестью. Пережив боль и растерянность он решает вернуться на праведный путь.

Качество: WEB-DL 720p
Формат: MKV

Видео: h.264, 5 032 Кбит/с, 1280x536
Аудио#1: Русский, (AC3, 2 ch, 384 Кбит/с)
скриншот  скриншот  скриншот  

Общее
Уникальный идентификатор : 234736857857885747970918590101172711569 (0xB098ACA2DB2AEBB5A50F25DFDD5EF091)
Полное имя : D:\Lost.Conscience.2018.Pk.WEB-DL.72Op.mkv
Формат : Matroska
Версия формата : Version 2
Размер файла : 3,98 Гбайт
Продолжительность : 1 ч. 45 м.
Режим общего битрейта : Переменный
Общий поток : 5418 Кбит/сек
Дата кодирования : UTC 2018-10-17 09:16:33
Программа кодирования : mkvmerge v8.3.0 ('Over the Horizon') 64bit
Библиотека кодирования : libebml v1.3.1 + libmatroska v1.4.2

Видео
Идентификатор : 1
Формат : AVC
Формат/Информация : Advanced Video Codec
Профиль формата : High@L4.1
Параметр CABAC формата : Да
Параметр RefFrames формата : 4 кадра
Идентификатор кодека : V_MPEG4/ISO/AVC
Продолжительность : 1 ч. 45 м.
Вид битрейта : Переменный
Битрейт : 5032 Кбит/сек
Максимальный битрейт : 5500 Кбит/сек
Ширина : 1280 пикселей
Высота : 536 пикселей
Соотношение сторон : 2,40:1
Режим частоты кадров : Постоянный
Частота кадров : 23,976 (24000/1001) кадра/сек
Стандарт вещания : Component
Цветовое пространство : YUV
Субдискретизация насыщенности : 4:2:0
Битовая глубина : 8 бит
Тип развёртки : Прогрессивная
Бит/(Пиксели*Кадры) : 0.299
Размер потока : 3,62 Гбайт (91%)
Default : Да
Forced : Нет
Цветовой диапазон : Limited
Основные цвета : BT.709
Характеристики трансфера : BT.709
Коэффициенты матрицы : BT.709

Аудио
Идентификатор : 2
Формат : AC-3
Формат/Информация : Audio Coding 3
Расширение режима : CM (complete main)
Параметр Endianness формата : Big
Идентификатор кодека : A_AC3
Продолжительность : 1 ч. 45 м.
Вид битрейта : Постоянный
Битрейт : 384 Кбит/сек
Каналы : 2 канала
Расположение каналов : Front: L R
Частота : 48,0 КГц
Частота кадров : 31,250 кадров/сек (1536 spf)
Метод сжатия : С потерями
Размер потока : 289 Мбайт (7%)
Default : Да
Forced : Нет

pb.wtf



Скачать Без совести через торрент http://img10.lostpic.net/2018/10/18/bbdac2e1e73caf9aaa7a977a8f91b31e.jpg Скачать фильм Без совести через торрент бесплантно в хорошем качестве Описание: Парень из деревни отправляется в город, но не выдерживает его соблазнов и испытаний, в итоге поступаясь собственной совестью. ... 10 10 2
Торрент: Зарегистрирован [2018-10-18 12:12] · скачан: 11 раз
Статус: T временная
Размер: 3.98 GB
Как cкачать? Как скачать Без совести через торрент | qTorrent

% Раздел Тема Автор DL S | L
T Фильмы (мультфильмы) cо спонсором показа (Новинки AVI/MKV) [ 1.37 GB ] Без совести / Diu xin / Lost Conscience [2018 WEB-DLRip] MVO [КОЛОБОК] bober100 Скачать
1 | 0

28-11-2019 20:33  

Отключить всю рекламу на сайте

    Дорогой пользователь! Огромная просьба, поблагодарите релизера, оцените раздачу и оставьте свои комментарий, если Вы скачали Без совести через торрент бесплатно! Внесите свою лепту в развитие PiratBit!
    Комментировать посты могут только пользователи прошедшие не сложную регистрацию
    Показать сообщения:    

    Без совести через торрент
    Скачать бесплатно Без совести
    Без совести скачать торрент
    Без совести смотреть онлайн
    Cкачать фильм Без совести бесплатно
    Без совести скачать торрент в хорошем качестве
    Без совести смотреть онлайн бесплатно в хорошем качестве


    Вы не можете начинать темы
    Вы не можете отвечать на сообщения
    Вы не можете редактировать свои сообщения
    Вы не можете удалять свои сообщения
    Вы не можете голосовать в опросах
    Вы не можете прикреплять файлы к сообщениям
    Вы можете скачивать файлы