Ссылка на приватное зеркало всего за 1$. Внимание количество ограничено!!!

OK

1+1

iTunes

мы

OK

1

WEB-DLRip

Джокер

Пифагор

Ведьмак / The Witcher сериал

iTunes

ПШазам

ОК

Оно 2

iTunes

30
pack

Вам бонус

ВАЖНО

!!Акция!!

Alien_RageХит недели

RePack

Resident Evil 21

ИГРА 18+

pack

RePack

jed

RePack

fifa19

RePack

Assassins Creed: Odyssey

RePack

NEED FOR SPEED™ PAYBACK

4 сезон

9 сезон

Бесстыжие 9 сезон

Все сериалы

все сериалы на PB.wtf

RePack

FAR CRY 5
  

Соболезную вашей утрате / Sorry for Your Loss (Коллин Фризен) [2018, Мелодрама, комедия, WEB-DL 720p] MVO ["Синема УС"] pb.wtf

Соболезную вашей утрате через торрент pb.wtf

Размер: 3.87 GB | Добавлен: 1 год 3 мес. назад | Торрент скачан:17 раз
Скачать  

18-10-2018 13:28 Соболезную вашей утрате Скачать торрент  

Соболезную вашей утрате / Sorry for Your LossГод выпуска: 2018
Страна: Канада
Жанр: Мелодрама, комедия
Продолжительность: 01:42:43
Перевод: Любительский (многоголосый) | "Синема УС"
Субтитры: отсутствуют

Режиссер: Коллин Фризен

rating

В ролях:

Инбар Лави, Сандрин Холт, Брюс Гринвуд, Джастин Барта, Лолита Давидович, Кевин МакДональд, Маршалл Уильямс, Тамара Горски, Стефен МакИнтайр, Кристен Харрис

Описание:

Кен пытается привыкнуть к своей новой роли после недавнего рождения первенца в его семье, а также мечтает окрыть ресторан. Но новость о смерти отца, с которым они не общались долгое время, заставляет его сменить планы. Прилетев на похороны, Кен узнаёт, что может стать обладателем немалого наследства, если выполнит последнюю волю отца. Однако, всё не так просто, как кажется на первый взгляд.

Качество: WEB-DL 720p
Формат: MKV

Видео: h.264,5 001 kb/s, 1280x720
Аудио#1: Русский, (AC3, 2 ch, 384 Кбит/с)
скриншот  скриншот  скриншот  

Общее
Уникальный идентификатор : 207194987655315424293241918531892797439 (0x9BE04D984DF0D1EABB0088DA3F81DFFF)
Полное имя : D:\Sorry.For.Your.Loss.2018.P.WEB-DL.72Op_KOSHARA.mkv
Формат : Matroska
Версия формата : Version 2
Размер файла : 3,87 Гбайт
Продолжительность : 1 ч. 42 м.
Режим общего битрейта : Переменный
Общий поток : 5387 Кбит/сек
Дата кодирования : UTC 2018-10-16 12:37:31
Программа кодирования : mkvmerge v8.3.0 ('Over the Horizon') 64bit
Библиотека кодирования : libebml v1.3.1 + libmatroska v1.4.2

Видео
Идентификатор : 1
Формат : AVC
Формат/Информация : Advanced Video Codec
Профиль формата : High@L4.1
Параметр CABAC формата : Да
Параметр RefFrames формата : 4 кадра
Идентификатор кодека : V_MPEG4/ISO/AVC
Продолжительность : 1 ч. 42 м.
Вид битрейта : Переменный
Битрейт : 5001 Кбит/сек
Максимальный битрейт : 5500 Кбит/сек
Ширина : 1280 пикселей
Высота : 720 пикселей
Соотношение сторон : 16:9
Режим частоты кадров : Постоянный
Частота кадров : 23,976 (24000/1001) кадра/сек
Стандарт вещания : Component
Цветовое пространство : YUV
Субдискретизация насыщенности : 4:2:0
Битовая глубина : 8 бит
Тип развёртки : Прогрессивная
Бит/(Пиксели*Кадры) : 0.222
Размер потока : 3,51 Гбайт (91%)
Default : Да
Forced : Нет
Цветовой диапазон : Limited
Основные цвета : BT.709
Характеристики трансфера : BT.709
Коэффициенты матрицы : BT.709

Аудио
Идентификатор : 2
Формат : AC-3
Формат/Информация : Audio Coding 3
Расширение режима : CM (complete main)
Параметр Endianness формата : Big
Идентификатор кодека : A_AC3
Продолжительность : 1 ч. 42 м.
Вид битрейта : Постоянный
Битрейт : 384 Кбит/сек
Каналы : 2 канала
Расположение каналов : Front: L R
Частота : 48,0 КГц
Частота кадров : 31,250 кадров/сек (1536 spf)
Метод сжатия : С потерями
Размер потока : 282 Мбайт (7%)
Default : Да
Forced : Нет

pb.wtf



Скачать Соболезную вашей утрате через торрент http://img10.lostpic.net/2018/10/18/b1ddd40f1d093c1f8f5fc26037d0330c.jpg Скачать фильм Соболезную вашей утрате через торрент бесплантно в хорошем качестве Описание: Кен пытается привыкнуть к своей новой роли после недавнего рождения первенца в его семье, а также мечтает окрыть ресторан. Но ... 9.3 10 3
Торрент: Зарегистрирован [2018-10-18 13:28] · скачан: 17 раз
Статус: T временная
Размер: 3.87 GB
Как cкачать? Как скачать Соболезную вашей утрате через торрент | qTorrent

% Раздел Тема Автор DL S | L
T Фильмы (мультфильмы) cо спонсором показа (Новинки AVI/MKV) [ 1.37 GB ] Соболезную вашей утрате / Sorry for Your Loss [2018 Мело WEB-DLRip] MVO ["Синема УС"] bober100 Скачать
1 | 0
Зарубежные сериалы [ 3.26 GB ] Соболезную вашей утрате / Sorry for Your Loss / Сезон: 1 / Серии: 1-10 из 10 [2018 WEBRip] [DVO] killermax2013 Скачать
1 | 0

28-11-2019 20:33  

Отключить всю рекламу на сайте

    Дорогой пользователь! Огромная просьба, поблагодарите релизера, оцените раздачу и оставьте свои комментарий, если Вы скачали Соболезную вашей утрате через торрент бесплатно! Внесите свою лепту в развитие PiratBit!
    Комментировать посты могут только пользователи прошедшие не сложную регистрацию
    Показать сообщения:    

    Соболезную вашей утрате через торрент
    Скачать бесплатно Соболезную вашей утрате
    Соболезную вашей утрате скачать торрент
    Соболезную вашей утрате смотреть онлайн
    Cкачать фильм Соболезную вашей утрате бесплатно
    Соболезную вашей утрате скачать торрент в хорошем качестве
    Соболезную вашей утрате смотреть онлайн бесплатно в хорошем качестве


    Вы не можете начинать темы
    Вы не можете отвечать на сообщения
    Вы не можете редактировать свои сообщения
    Вы не можете удалять свои сообщения
    Вы не можете голосовать в опросах
    Вы не можете прикреплять файлы к сообщениям
    Вы можете скачивать файлы