Всегда рабочее зеркало без VPN и Proxy просто перед .vidak.icu напиши любое слово или цифру, Пример http://anaw.vidak.icu

MVO

2 сезон

2 сезон

1

1 сезон

iTunes

2 сезон

13

1 сезон

Deluxe

pack

Рекомендуем

Пиратка

30

ВАЖНО

RePack

MK11

RePack

jed

RePack

fifa19

RePack

RDR2

RePack

NEED FOR SPEED™ PAYBACK

Кинопоиск HD

6 сезон

 Острые козырьки 6 сезон

Все сериалы

все сериалы на PB.wtf

RePack

FAR CRY 5

Anonymous, нам критически не хватает 5601 руб. на оплату серверов и переферии за Апрель, помоги нам пожалуйста, вся надежда только на тебя. В благодарность мы отключим тебе всю рекламу на сайте!

×
  
Magnet ссылка

Гадкий Я 2 / Despicable Me 2 (Пьер Коффан, Крис Рено) [2013 г., мультфильм, фантастика, комедия, приключения, семейный, BDRip 1080p, HEVC, Дубляж] pb.wtf

Гадкий Я 2 через торрент pb.wtf

Размер: 3.78 GB | Добавлен: 3 года 7 мес. назад | Торрент скачан:244 раза
Смотреть онлайн Гадкий Я 2 | Скачать    Ребята, помогите собрать деньги на оплату серверов!!!

18-10-2018 14:04 Гадкий Я 2 Скачать торрент  

Гадкий Я 2 / Despicable Me 2
Год выпуска: 2013
Страна: США
Жанр: мультфильм, фантастика, комедия, приключения, семейный
Продолжительность: 01:37:58
Перевод: Дубляж
Субтитры: нет

Режиссер: Пьер Коффан, Крис Рено

rating

В ролях: Стив Карелл, Кристен Уиг, Бенджамин Брэтт, Миранда Косгров

Описание: В то время как Грю, бывший суперзлодей, приспосабливается к семейной жизни и пытается честным трудом зарабатывать в сфере бизнеса, тайные лаборатории Арктики оказываются украденными. Анти-Злодейская лига решает, что она нуждается в помощи Грю и его новобранцев в расследовании.
Доп. информация: -
H.265/HEVC (High Efficiency Video Coding) - это новый стандарт кодирования видео.
- Стандарт H.265/HEVC является логическим продолжением стандарта
H.264/AVC (Advanced Video Coding), и характеризуется более эффективными
алгоритмами сжатия, а также поддержкой высокого разрешения вплоть до 8K UHD
(8192x4320). Первая версия стандарта H.265 была опубликована в начале 2013 года.
- Рипы в фомате HEVC поддерживается не всеми аппаратными проигрывателями.
- Для корректного воспроизведения может потребоваться обновление ПО.
- Владельцам несовместимого железа просьба не беспокоить,
есть альтернативные релизы.
Качество: BDRip 1080p
Формат: MKV
Видео кодек: H.265
Аудио кодек: AC3
Видео: 1920x1036, ~3604 Kbps
Аудио#1: AC3, 6 ch, 384 Kbps - Дублированный
Аудио#2: AC3, 6 ch, 384 Kbps - MVO, (Кубик в кубе)
Аудио#3: AC3, 6 ch, 384 Kbps - AVO, (Сербин)
Аудио#4: AC3, 6 ch, 384 Kbps - AVO, (Живов)
Аудио#5: AC3, 6 ch, 448 Kbps - Английский
Релиз от: Мичман
Общее
Уникальный идентификатор : 229422429162074071267357213790242216010 (0xAC992712594807AF984F43E1A1EE184A)
Полное имя : F:\РАЗДАЧИ\Гадкий Я - 2. 2013. 1080р. HEVC. (1).mkv
Формат : Matroska
Версия формата : Version 4 / Version 2
Размер файла : 3,78 Гбайт
Продолжительность : 1 ч. 37 м.
Общий поток : 5527 Кбит/сек
Дата кодирования : UTC 2017-08-08 10:25:05
Программа кодирования : mkvmerge v12.0.0 ('Trust / Lust') 64bit
Библиотека кодирования : libebml v1.3.4 + libmatroska v1.4.5
Обложка : Yes
Attachments : cover.jpg

Видео
Идентификатор : 1
Формат : HEVC
Формат/Информация : High Efficiency Video Coding
Профиль формата : Main@L4@Main
Идентификатор кодека : V_MPEGH/ISO/HEVC
Продолжительность : 1 ч. 37 м.
Битрейт : 3604 Кбит/сек
Ширина : 1920 пикселей
Высота : 1036 пикселей
Соотношение сторон : 1,85:1
Режим частоты кадров : Постоянный
Частота кадров : 23,976 (24000/1001) кадра/сек
Цветовое пространство : YUV
Субдискретизация насыщенности : 4:2:0
Битовая глубина : 8 бит
Бит/(Пиксели*Кадры) : 0.076
Размер потока : 2,47 Гбайт (65%)
Библиотека кодирования : x265 2.5+6-d11482e5fedb:[Windows][GCC 7.1.0][64 bit] 8bit
Настройки программы : cpuid=1105919 / frame-threads=9 / numa-pools=8 / wpp / no-pmode / no-pme / no-psnr / no-ssim / log-level=3 / input-csp=1 / input-res=1920x1036 / interlace=0 / total-frames=0 / level-idc=0 / high-tier=1 / uhd-bd=0 / ref=3 / no-allow-non-conformance / no-repeat-headers / annexb / no-aud / no-hrd / info / hash=0 / no-temporal-layers / open-gop / min-keyint=23 / keyint=230 / bframes=4 / b-adapt=2 / b-pyramid / bframe-bias=0 / rc-lookahead=20 / lookahead-slices=6 / scenecut=40 / no-intra-refresh / ctu=64 / min-cu-size=8 / no-rect / no-amp / max-tu-size=32 / tu-inter-depth=1 / tu-intra-depth=1 / limit-tu=0 / rdoq-level=0 / dynamic-rd=0.00 / no-ssim-rd / signhide / no-tskip / nr-intra=0 / nr-inter=0 / no-constrained-intra / strong-intra-smoothing / max-merge=2 / limit-refs=3 / no-limit-modes / me=1 / subme=2 / merange=57 / temporal-mvp / weightp / no-weightb / no-analyze-src-pics / deblock=-2:-2 / sao / no-sao-non-deblock / rd=3 / no-early-skip / rskip / no-fast-intra / no-tskip-fast / no-cu-lossless / no-b-intra / rdpenalty=0 / psy-rd=2.00 / psy-rdoq=0.00 / no-rd-refine / analysis-reuse-mode=0 / no-lossless / cbqpoffs=0 / crqpoffs=0 / rc=crf / crf=20.0 / qcomp=0.60 / qpstep=4 / stats-write=0 / stats-read=0 / ipratio=1.40 / pbratio=1.30 / aq-mode=1 / aq-strength=1.00 / cutree / zone-count=0 / no-strict-cbr / qg-size=32 / no-rc-grain / qpmax=69 / qpmin=0 / no-const-vbv / sar=1 / overscan=0 / videoformat=5 / range=0 / colorprim=2 / transfer=2 / colormatrix=2 / chromaloc=0 / display-window=0 / max-cll=0,0 / min-luma=0 / max-luma=255 / log2-max-poc-lsb=8 / vui-timing-info / vui-hrd-info / slices=1 / opt-qp-pps / opt-ref-list-length-pps / no-multi-pass-opt-rps / scenecut-bias=0.05 / no-opt-cu-delta-qp / no-aq-motion / no-hdr / no-hdr-opt / no-dhdr10-opt / analysis-reuse-level=5 / scale-factor=0 / refine-intra=0 / refine-inter=0 / refine-mv=0 / no-limit-sao / ctu-info=0
Default : Да
Forced : Нет

Аудио #1
Идентификатор : 2
Формат : AC-3
Формат/Информация : Audio Coding 3
Идентификатор кодека : A_AC3
Продолжительность : 1 ч. 37 м.
Вид битрейта : Постоянный
Битрейт : 384 Кбит/сек
Каналы : 6 каналов
Расположение каналов : Front: L C R, Side: L R, LFE
Частота : 48,0 КГц
Частота кадров : 31,250 кадров/сек (1536 SPF)
Битовая глубина : 16 бит
Метод сжатия : С потерями
Размер потока : 269 Мбайт (7%)
Заголовок : Дублированный
Язык : Russian
ServiceKind/String : Complete Main
Default : Да
Forced : Нет

Аудио #2
Идентификатор : 3
Формат : AC-3
Формат/Информация : Audio Coding 3
Идентификатор кодека : A_AC3
Продолжительность : 1 ч. 37 м.
Вид битрейта : Постоянный
Битрейт : 384 Кбит/сек
Каналы : 6 каналов
Расположение каналов : Front: L C R, Side: L R, LFE
Частота : 48,0 КГц
Частота кадров : 31,250 кадров/сек (1536 SPF)
Битовая глубина : 16 бит
Метод сжатия : С потерями
Размер потока : 269 Мбайт (7%)
Заголовок : Кубик в Кубе
Язык : Russian
ServiceKind/String : Complete Main
Default : Нет
Forced : Нет

Аудио #3
Идентификатор : 4
Формат : AC-3
Формат/Информация : Audio Coding 3
Идентификатор кодека : A_AC3
Продолжительность : 1 ч. 37 м.
Вид битрейта : Постоянный
Битрейт : 384 Кбит/сек
Каналы : 6 каналов
Расположение каналов : Front: L C R, Side: L R, LFE
Частота : 48,0 КГц
Частота кадров : 31,250 кадров/сек (1536 SPF)
Битовая глубина : 16 бит
Метод сжатия : С потерями
Размер потока : 269 Мбайт (7%)
Заголовок : Ю. Сербин
Язык : Russian
ServiceKind/String : Complete Main
Default : Нет
Forced : Нет

Аудио #4
Идентификатор : 5
Формат : AC-3
Формат/Информация : Audio Coding 3
Идентификатор кодека : A_AC3
Продолжительность : 1 ч. 37 м.
Вид битрейта : Постоянный
Битрейт : 384 Кбит/сек
Каналы : 6 каналов
Расположение каналов : Front: L C R, Side: L R, LFE
Частота : 48,0 КГц
Частота кадров : 31,250 кадров/сек (1536 SPF)
Битовая глубина : 16 бит
Метод сжатия : С потерями
Размер потока : 269 Мбайт (7%)
Заголовок : Ю.Живов
Язык : Russian
ServiceKind/String : Complete Main
Default : Нет
Forced : Нет

Аудио #5
Идентификатор : 6
Формат : AC-3
Формат/Информация : Audio Coding 3
Идентификатор кодека : A_AC3
Продолжительность : 1 ч. 37 м.
Вид битрейта : Постоянный
Битрейт : 384 Кбит/сек
Каналы : 6 каналов
Расположение каналов : Front: L C R, Side: L R, LFE
Частота : 48,0 КГц
Частота кадров : 31,250 кадров/сек (1536 SPF)
Битовая глубина : 16 бит
Метод сжатия : С потерями
Размер потока : 269 Мбайт (7%)
Язык : English
ServiceKind/String : Complete Main
Default : Нет
Forced : Нет

Меню
00:00:00.000 : :Глава 1
00:03:22.992 : :Глава 2
00:08:04.733 : :Глава 3
00:15:50.865 : :Глава 4
00:18:28.230 : :Глава 5
00:24:36.892 : :Глава 6
00:30:50.721 : :Глава 7
00:34:40.702 : :Глава 8
00:40:48.277 : :Глава 9
00:46:26.199 : :Глава 10
00:51:23.121 : :Глава 11
00:56:27.425 : :Глава 12
01:00:00.471 : :Глава 13
01:03:27.052 : :Глава 14
01:08:44.078 : :Глава 15
01:14:01.979 : :Глава 16
01:18:08.055 : :Глава 17
01:22:33.907 : :Глава 18
01:27:09.095 : :Глава 19
01:30:33.719 : :Глава 20
01:37:58.497 : :Глава 21

pb.wtf



Скачать Гадкий Я 2 через торрент https://c.radikal.ru/c17/1810/10/fe2fbfeb8ce1.jpg Скачать, смотреть онлайн Гадкий Я 2 бесплантно в хорошем качестве Описание: В то время как Грю, бывший суперзлодей, приспосабливается к семейной жизни и пытается честным трудом зарабатывать в сфере ... 10 10 10
Info! Золотая раздача, скачанное не засчитывается.
Торрент: Зарегистрирован [2018-10-18 14:04] · скачан: 244 раз
Статус: √ проверено
Размер: 3.78 GB
Как cкачать? Как скачать Гадкий Я 2 через торрент | UTorrent

% Раздел Тема Автор DL S | L
Мультфильмы (48-60 fps) [ 4 GB ] Гадкий я 2 / Despicable Me 2 [2013 мультфильм BDRip 720p / 60 FPS ] от R.G. HD-Films slaventi-69 Скачать
7 | 0
Ultra HD (UHD: 2K, 4K, 8K) [ 33.7 GB ] Гадкий я 2 / Despicable Me 2 [2013 мультфильм UHD BDRemux 2160p] DVO+2xAVO+DUB [BD EUR] bober100 Скачать
1 | 0
Ultra HD (UHD: 2K, 4K, 8K) [ 26.43 GB ] Гадкий я 2 / Despicable Me 2 [2013 мультфильм UHD BDRemux 2160p] 2xMVO +DUB [BD EUR] bober100 Скачать
2 | 0
Зарубежные Мультфильмы (BDRip 1080p, 720p, Blu-ray, BD-Remux) [ 4.37 GB ] Гадкий я 2 / Despicable Me 2 [2013 мультфильм BDRip 720p]Dub[лицензия] Ворон Скачать
1 | 0
Фильмы с украинским озвучиванием [ 1.32 GB ] Гадкий я 2 / Нікчемний я 2 / Despicable Me 2 [2013 мультфильм BDRip] [Ukr DUB] killermax2013 Скачать
1 | 0
Иностранные мультфильмы [ 1.45 GB ] Гадкий я 2 / Despicable Me 2 [2013 мультфильм BDRip () [] 19Diman Скачать
1 | 0
Игры android [ 733 MB ] [Android 2.3 Notturno Скачать
1 | 0

28-11-2019 20:33  

Отключить всю рекламу на сайте

16-12-2021 13:50 Гадкий Я 2 Скачать торрент  

Дайте скорости!!!pb.wtf



    Дорогой пользователь! Огромная просьба, поблагодарите релизера, оцените раздачу и оставьте свои комментарий, если Вы скачали Гадкий Я 2 через торрент бесплатно!
    Комментировать посты могут только пользователи прошедшие не сложную регистрацию
    Показать сообщения:    

    Гадкий Я 2 через торрент
    Скачать бесплатно Гадкий Я 2
    Гадкий Я 2 скачать торрент
    Гадкий Я 2 смотреть онлайн
    Cкачать фильм Гадкий Я 2 бесплатно
    Гадкий Я 2 скачать торрент в хорошем качестве
    Гадкий Я 2 смотреть онлайн бесплатно в хорошем качестве


    Вы не можете начинать темы
    Вы не можете отвечать на сообщения
    Вы не можете редактировать свои сообщения
    Вы не можете удалять свои сообщения
    Вы не можете голосовать в опросах
    Вы не можете прикреплять файлы к сообщениям
    Вы можете скачивать файлы