новый адрес пиратбит piratbit
Мега распродажа FORZA HORIZON 4 ULTIMATE+ВСЕ DLC+ОНЛАЙН всего за 499р. 349 руб. (супер цена). Внимание количество ограничено!!!

iTunes

1+1

iTunes

мы

iTunes

1

iTunes

Чернобыль

iTunes

Ральф против интернета

Лицензия

ПШазам

Лицензия

Игра престолов

Лицензия

30
pack

ВАЖНО

!!Акция!!

Alien_RageХит недели

RePack

Resident Evil 21

ИГРА 18+

pack

RePack

Metro:Exodus

!!Акция!!

Alien_Rage

RePack

fifa19

RePack

Assassins Creed: Odyssey

RePack

NEED FOR SPEED™ PAYBACK

3 сезон

9 сезон

Бесстыжие 9 сезон

Все сериалы

все сериалы на PB.wtf

RePack

FAR CRY 5
Ребята, катастрофически не хватает 1900р. для оплаты серверов за Октябрь (всвязи с блокировками трафик упал в 3 раза), 1-2р., выручайте.
  

Пока цветёт папоротник / Серии: 1-13 из 13 (Евгений Бедарев) [2012, фентези, комедия, приключения, WEB-DLRip] pb.wtf

Пока цветёт папоротник через торрент pb.wtf

Раздают: 2 [ 0 KB/s ]
Размер: 7.07 GB | Добавлен: 1 год назад | Торрент скачан:250 раз
Скачать  

18-10-2018 17:27 Пока цветёт папоротник Скачать торрент  

Пока цветёт папоротникГод выпуска: 2012
Страна: Россия
Жанр: фентези, комедия, приключения
Продолжительность: ~ 00:47:00
Перевод: Не требуется
Субтитры: отсутствуют

Режиссер: Евгений Бедарев



В ролях:

Александр Петров (IX), Татьяна Орлова, Павел Крайнов, Роман Курцын, Светлана Суханова, Алла Подчуфарова, Алексей Васильев (II), Юлия Самойленко, Елена Николаева (II), Сергей Майоров (III), Дмитрий Бедарев, Ольга Юрасова, Александр Никольский (II), Софья Ледовских, Константин Адаев, Алексей Лосихин, Александр Шестопалов, Виктор Мютников, Залим Мирзоев, Александр Мезенцев и др.

Описание:

В ту ночь Кирилл проснулся от собственного крика. Его мучили кошмары: мелькали заброшенные колодцы, черные деревья, глаза оборотней и еще что-то невразумительное. «Опять эта ерунда», - подумал Кирилл и подошел к распахнутому окну. Далеко внизу шумела ночная Москва. Воздух был душный и липкий. До 7 июля оставалось несколько дней. Несколько дней, которые отделяли Кирилла от важного события – ночи на Ивана Купалу. Он и не подозревает еще, что буквально завтра окажется в далекой Сибири, что среди вековых кедров и обрывистых скал Алтая его самого, сестру Сашу и нескольких случайных попутчиков закружит водоворот приключений, вынуждая то убегать от погони, то пробираться тайными тропами, то барахтаться среди порогов могучей Катуни! Однако герои даже не могли предположить, что все случившееся с ними – не просто цепь совпадений, а невидимая борьба мистических сил. Разве могли обычные туристы, дети цивилизованного мира понять, что они уже давно оказались в зачарованном и таинственном месте, где реальность не подчиняется обычным законам? Теперь, чтобы спастись от опасности, найти друг друга и выйти живыми из схватки с неведомыми силами, у героев остается слишком мало времени! Всего несколько часов, пока не настанет ночь на Ивана Купалу и не зацветет волшебный папоротник! Тот самый сказочный цветок, который позволяет видеть клады под землей, читать мысли людей и повелевать духами.

Качество: WEB-DLRip
Формат: AVI

Видео: XviD build 73, 720x400 (16:9), 25.000 fps, ~ 1436 Kbps (~ 0.200 bit/pixel)
Аудио: 48.0 kHz, AC3, 2/0 ch, 192 kbps
скриншот  скриншот  скриншот  скриншот  скриншот  

скриншот  скриншот  скриншот  скриншот  скриншот  

General
Complete name : D:Пока цветет папоротник 1-я серия фэнтези HD01.avi
Format : AVI
Format/Info : Audio Video Interleave
File size : 557 MiB
Duration : 47 min 33 s
Overall bit rate : 1 637 kb/s
Writing application : VirtualDubMod 1.5.10.3 | www.virtualdub-fr.org || (build 2550/release)
Writing library : VirtualDubMod build 2550/release

Video
ID : 0
Format : MPEG-4 Visual
Format profile : Advanced Simple@L5
Format settings, BVOP : 1
Format settings, QPel : No
Format settings, GMC : No warppoints
Format settings, Matrix : Custom
Codec ID : XVID
Codec ID/Hint : XviD
Duration : 47 min 33 s
Bit rate : 1 436 kb/s
Width : 720 pixels
Height : 400 pixels
Display aspect ratio : 16:9
Frame rate : 25.000 FPS
Color space : YUV
Chroma subsampling : 4:2:0
Bit depth : 8 bits
Scan type : Progressive
Compression mode : Lossy
Bits/(Pixel*Frame) : 0.199
Stream size : 488 MiB (88%)
Writing library : XviD 73

Audio
ID : 1
Format : AC-3
Format/Info : Audio Coding 3
Format settings, Endianness : Big
Codec ID : 2000
Duration : 47 min 33 s
Bit rate mode : Constant
Bit rate : 192 kb/s
Channel(s) : 2 channels
Channel positions : Front: L R
Sampling rate : 48.0 kHz
Frame rate : 31.250 FPS (1536 SPF)
Bit depth : 16 bits
Compression mode : Lossy
Stream size : 65.3 MiB (12%)
Alignment : Split accross interleaves
Interleave, duration : 40 ms (1.00 video frame)
Interleave, preload duratio : 500 ms
Service kind : Complete Main

pb.wtf



Скачать Пока цветёт папоротник через торрент http://i78.fastpic.ru/big/2018/1018/db/f299f97f70defd5e56271c188c7579db.jpg Скачать фильм Пока цветёт папоротник через торрент бесплантно в хорошем качестве Описание: В ту ночь Кирилл проснулся от собственного крика. Его мучили кошмары: мелькали заброшенные колодцы, черные деревья, глаза ... 10 10 7
Info! Золотая раздача, скачанное не засчитывается.
Торрент: Зарегистрирован [2018-10-18 17:27] · скачан: 250 раз
Статус: √ проверено
Размер: 7.07 GB
Как cкачать? Как скачать Пока цветёт папоротник через торрент | qTorrent

% Раздел Тема Автор DL S | L
Наши сериалы [ 34.63 GB ] Пока цветёт папоротник / Серии: 1-13 из 13 [2012 фентези HDTV 1080i] bober100 Скачать
2 | 1


>> Регистрируемся здесь <<






Отзывы и комментарии о схеме читаем и пишем здесь: ---> Отзывы и комментарии о схеме

Новые благодарочки в телеграм довольных пользователей:
скриншот   скриншот   скриншот   скриншот   скриншот
    Дорогой пользователь! Огромная просьба, поблагодарите релизера, оцените раздачу и оставьте свои комментарий, если Вы скачали Пока цветёт папоротник через торрент бесплатно! Внесите свою лепту в развитие PiratBit!
    Комментировать посты могут только пользователи прошедшие не сложную регистрацию
    Показать сообщения:    

    Пока цветёт папоротник через торрент
    Скачать бесплатно Пока цветёт папоротник
    Пока цветёт папоротник скачать торрент
    Пока цветёт папоротник смотреть онлайн
    Cкачать фильм Пока цветёт папоротник бесплатно
    Пока цветёт папоротник скачать торрент в хорошем качестве
    Пока цветёт папоротник смотреть онлайн бесплатно в хорошем качестве


    Вы не можете начинать темы
    Вы не можете отвечать на сообщения
    Вы не можете редактировать свои сообщения
    Вы не можете удалять свои сообщения
    Вы не можете голосовать в опросах
    Вы не можете прикреплять файлы к сообщениям
    Вы можете скачивать файлы