Ссылка на приватное зеркало всего за 1$. Внимание количество ограничено!!!

OK

1+1

iTunes

мы

OK

1

WEB-DLRip

Джокер

Пифагор

Ведьмак / The Witcher сериал

iTunes

ПШазам

ОК

Оно 2

iTunes

30
pack

Вам бонус

ВАЖНО

!!Акция!!

Alien_RageХит недели

RePack

Resident Evil 21

ИГРА 18+

pack

RePack

jed

RePack

fifa19

RePack

Assassins Creed: Odyssey

RePack

NEED FOR SPEED™ PAYBACK

4 сезон

9 сезон

Бесстыжие 9 сезон

Все сериалы

все сериалы на PB.wtf

RePack

FAR CRY 5
  

Волна / Ripple (Кертис Эверитт, Крис Копски) [2017, Ужасы, WEB-DLRip-AVC] MVO ["Синема УС"] pb.wtf

Волна через торрент pb.wtf

Размер: 1.37 GB | Добавлен: 1 год 3 мес. назад | Торрент скачан:25 раз
Скачать  

19-10-2018 07:14 Волна Скачать торрент  

Волна / RippleГод выпуска: 2017
Страна: США
Жанр: Ужасы
Продолжительность: 01:34:41
Перевод: Любительский (многоголосый) | "Синема УС"
Субтитры: отсутствуют

Режиссер: Кертис Эверитт, Крис Копски

rating

В ролях:

Блейк Блалок, Синтия Боннер, Рикки Брюер, Крис Копски, Джонатан Диксон, Трей Драма, Жаклин Элдер-Меридет, Энди Фельдман, Кристофер Гриффин, Блайт Хеберт

Описание:

Чтобы помочь своей жене излечиться от психологического расстройства, Кевин везёт её отдохнуть на берег океана, однако идиллию семейки нарушают зловещие клоуны-убийцы, появившиеся из океанской пучины.

Качество: WEB-DLRip-AVC
Формат: MKV

Видео: h.264,2 812 Кбит/с, 720x400
Аудио#1: Русский, (AC3, 2 ch, 384 Кбит/с)
скриншот  скриншот  скриншот  

Общее
Уникальный идентификатор : 172494339443706367036597899739381641291 (0x81C5338C251EEA6B9EE8A48D1494304B)
Полное имя : D:\Ripple.2017.P.WEB-DLRip-AVC_KOSHARA.mkv
Формат : Matroska
Версия формата : Version 2
Размер файла : 1,37 Гбайт
Продолжительность : 1 ч. 1 м.
Режим общего битрейта : Переменный
Общий поток : 3198 Кбит/сек
Дата кодирования : UTC 2018-10-18 20:25:14
Программа кодирования : mkvmerge v8.3.0 ('Over the Horizon') 64bit
Библиотека кодирования : libebml v1.3.1 + libmatroska v1.4.2

Видео
Идентификатор : 1
Формат : AVC
Формат/Информация : Advanced Video Codec
Профиль формата : High@L4.1
Параметр CABAC формата : Да
Параметр RefFrames формата : 4 кадра
Идентификатор кодека : V_MPEG4/ISO/AVC
Продолжительность : 1 ч. 1 м.
Вид битрейта : Переменный
Битрейт : 2812 Кбит/сек
Максимальный битрейт : 3000 Кбит/сек
Ширина : 720 пикселей
Высота : 400 пикселей
Соотношение сторон : 16:9
Режим частоты кадров : Постоянный
Частота кадров : 23,976 (24000/1001) кадра/сек
Цветовое пространство : YUV
Субдискретизация насыщенности : 4:2:0
Битовая глубина : 8 бит
Тип развёртки : Прогрессивная
Бит/(Пиксели*Кадры) : 0.407
Размер потока : 1,20 Гбайт (88%)
Default : Да
Forced : Нет

Аудио
Идентификатор : 2
Формат : AC-3
Формат/Информация : Audio Coding 3
Расширение режима : CM (complete main)
Параметр Endianness формата : Big
Идентификатор кодека : A_AC3
Продолжительность : 1 ч. 1 м.
Вид битрейта : Постоянный
Битрейт : 384 Кбит/сек
Каналы : 2 канала
Расположение каналов : Front: L R
Частота : 48,0 КГц
Частота кадров : 31,250 кадров/сек (1536 spf)
Метод сжатия : С потерями
Размер потока : 168 Мбайт (12%)
Default : Да
Forced : Нет

pb.wtf



Скачать Волна через торрент http://img10.lostpic.net/2018/10/19/e874a19634b5caf22a5e7170540ce50d.jpg Скачать фильм Волна через торрент бесплантно в хорошем качестве Описание: Чтобы помочь своей жене излечиться от психологического расстройства, Кевин везёт её отдохнуть на берег океана, однако идиллию ... 8.2 10 5
Торрент: Зарегистрирован [2018-10-19 07:14] · скачан: 25 раз
Статус: T временная
Размер: 1.37 GB
Как cкачать? Как скачать Волна через торрент | qTorrent

28-11-2019 20:33  

Отключить всю рекламу на сайте

19-10-2018 07:32 Волна Скачать торрент  

Хорошо хоть,не клоуны-педофилы... pb.wtf



19-10-2018 07:37 Волна Скачать торрент  

Stopper68 писал(а):

Хорошо хоть,не клоуны-педофилы...

взрослым же нечего тогда бояться.
а, понял! ты про свои страхи - боишься, что педофил сочтёт тебя недостаточно старым!pb.wtf



19-10-2018 09:04 Волна Скачать торрент  

зловещие клоуны-убийцы из океанской пучины это действительно страшно не удивлюсь, если там дядька-черномор где-то рядом трется
upd. блииин! вы только посмотрите на этих клоунов клоунов))))) это что я такое посмотрел счас?! у оператора детского утренника снять ужасы прямо скажем шансы повыше:


pb.wtf



19-10-2018 11:53 Волна Скачать торрент  

Хоть бы на айфон какой-нибудь не сильно старый снимали свои "шедевры", а то на моторолу 398 - это уж вообще утопияpb.wtf



19-10-2018 13:24 Волна Скачать торрент  

Спс за ко менты пожалуй пройду мимо, автору спс за труды.pb.wtf



    Дорогой пользователь! Огромная просьба, поблагодарите релизера, оцените раздачу и оставьте свои комментарий, если Вы скачали Волна через торрент бесплатно! Внесите свою лепту в развитие PiratBit!
    Комментировать посты могут только пользователи прошедшие не сложную регистрацию
    Показать сообщения:    

    Волна через торрент
    Скачать бесплатно Волна
    Волна скачать торрент
    Волна смотреть онлайн
    Cкачать фильм Волна бесплатно
    Волна скачать торрент в хорошем качестве
    Волна смотреть онлайн бесплатно в хорошем качестве


    Вы не можете начинать темы
    Вы не можете отвечать на сообщения
    Вы не можете редактировать свои сообщения
    Вы не можете удалять свои сообщения
    Вы не можете голосовать в опросах
    Вы не можете прикреплять файлы к сообщениям
    Вы можете скачивать файлы