новый адрес пиратбит piratbit
Мега распродажа FORZA HORIZON 4 ULTIMATE+ВСЕ DLC+ОНЛАЙН всего за 499р. 349 руб. (супер цена). Внимание количество ограничено!!!

iTunes

1+1

iTunes

мы

iTunes

1

iTunes

Чернобыль

iTunes

Ральф против интернета

Лицензия

ПШазам

Лицензия

Игра престолов

Лицензия

30
pack

ВАЖНО

!!Акция!!

Alien_RageХит недели

RePack

Resident Evil 21

ИГРА 18+

pack

RePack

Metro:Exodus

!!Акция!!

Alien_Rage

RePack

fifa19

RePack

Assassins Creed: Odyssey

RePack

NEED FOR SPEED™ PAYBACK

3 сезон

9 сезон

Бесстыжие 9 сезон

Все сериалы

все сериалы на PB.wtf

RePack

FAR CRY 5
Ребята, катастрофически не хватает 1900р. для оплаты серверов за Октябрь (всвязи с блокировками трафик упал в 3 раза), 1-2р., выручайте.
  

Счастья! Здоровья! (Марк Горобец, Арман Марутян, Леонид Марголин) [2018 г., Комедия, WEB-DLRip-AVC] [iTunes] pb.wtf

Счастья! Здоровья! через торрент pb.wtf

Раздают: 2 [ 0 KB/s ]
Размер: 1.63 GB | Добавлен: 1 год назад | Торрент скачан:507 раз
Скачать  

19-10-2018 08:06 Счастья! Здоровья! Скачать торрент  

Счастья! Здоровья!
Год выпуска: 2018
Страна: Россия
Жанр: Комедия
Продолжительность: 01:23:00
Перевод: Не требуется | iTunes
Субтитры: Отсутствуют

Режиссер: Марк Горобец, Арман Марутян, Леонид Марголин



В ролях: Зоя Бербер, Камиль Ларин, Марина Федункив, Сергей Аброскин, Наталья Рудова, Грант Тохатян, Даниил Вахрушев, Олег Верещагин, Дарья Пынзарь, Стася Милославская

Описание: Три влюблённые пары — татарская, армянская и русская — готовятся сыграть свадьбы. Но выясняется, что для Рината и Гузельки свадьба — это способ добыть деньги, чтобы вернуть дорогую скрипку, для отца Артура важнее всего, чтобы свадьба его сына и москвички-Юли прошла в Армении, а у Светы есть «скелет в шкафу» — её «бывший» Андрей в день свадьбы с Олегом вышел из тюрьмы. Зато гости отрываются от души, а у зрителей фильма «Счастья! Здоровья!» есть уникальная возможность побывать сразу на трёх свадьбах. Тосты и конкурсы, песни и танцы, поцелуи и… драки — что за свадьба без драки?! Это бомбически круто и нереально смешно. Три свадьбы, три пары — такие разные, такие непохожие. Но любовь объединяет, а гости от души желают: «Счастья! Здоровья!»

Качество: WEB-DLRip-AVC
Формат: MKV

Видео: AVC 2336 Кбит/сек,1024x428, в 25,000 кадров/сек
Аудио: AC3 384 Кбит/сек,48,0 КГц, 6 канала
скриншот  скриншот  скриншот  скриншот  скриншот  





Общее
Уникальный идентификатор : 3957918112272862491236175406281100879 (0x2FA446DD66096E0214FC9D1979D8E4F)
Полное имя : D:\Фильмы с PIRATBIT\SCHASTYA_ZDOROVYA (2018) WEBDLRip-AVC.mkv
Формат : Matroska
Версия формата : Version 4 / Version 2
Размер файла : 1,63 Гбайт
Продолжительность : 1 ч. 23 м.
Общий поток : 2775 Кбит/сек
Программа кодирования : XviD4PSP 7.0.457 DAILY
Библиотека кодирования : Lavf57.71.100 / Lavf57.71.100
Примечание : Rip by Basma4i&TorrNADO
ErrorDetectionType : Per level 1
Attachments : poster.jpg
CRC_Error_Pos : 1502
ENCODING_INFO : MATROSKA,WEBM > MKV Пользовательский / H264 > X264 ABR 2500kbps HQ / AC3 > AC3 CBR 384kbps
Язык : und

Видео
Идентификатор : 1
Формат : AVC
Формат/Информация : Advanced Video Codec
Профиль формата : High@L4.1
Параметр CABAC формата : Да
Параметр ReFrames формата : 10 кадров
Идентификатор кодека : V_MPEG4/ISO/AVC
Продолжительность : 1 ч. 23 м.
Битрейт : 2336 Кбит/сек
Номинальный битрейт : 2500 Кбит/сек
Ширина : 1024 пикселя
Высота : 428 пикселей
Соотношение сторон : 2,40:1
Режим частоты кадров : Постоянный
Частота кадров : 23,976 (24000/1001) кадра/сек
Цветовое пространство : YUV
Субдискретизация насыщенности : 4:2:0
Битовая глубина : 8 бит
Тип развёртки : Прогрессивная
Бит/(Пиксели*Кадры) : 0.222
Размер потока : 1,37 Гбайт (84%)
Библиотека кодирования : x264 core 155 r2901M 7d0ff22
Настройки программы : cabac=1 / ref=10 / deblock=1:-3:-3 / analyse=0x3:0x133 / me=umh / subme=10 / psy=1 / psy_rd=1.00:0.20 / mixed_ref=1 / me_range=16 / chroma_me=1 / trellis=2 / 8x8dct=1 / cqm=0 / deadzone=21,11 / fast_pskip=1 / chroma_qp_offset=-3 / threads=11 / lookahead_threads=1 / sliced_threads=0 / nr=0 / decimate=1 / interlaced=0 / bluray_compat=0 / constrained_intra=0 / bframes=10 / b_pyramid=2 / b_adapt=1 / b_bias=10 / direct=1 / weightb=1 / open_gop=0 / weightp=1 / keyint=240 / keyint_min=24 / scenecut=40 / intra_refresh=0 / rc_lookahead=40 / rc=abr / mbtree=1 / bitrate=2500 / ratetol=1.0 / qcomp=0.60 / qpmin=0 / qpmax=69 / qpstep=4 / ip_ratio=1.40 / aq=1:1.00
Язык : English
Default : Да
Forced : Нет
Цветовой диапазон : Limited
Основные цвета : BT.709
Характеристики трансфера : BT.709
Коэффициенты матрицы : BT.709

Аудио
Идентификатор : 2
Формат : AC-3
Формат/Информация : Audio Coding 3
Расширение режима : CM (complete main)
Параметр Endianness формата : Big
Идентификатор кодека : A_AC3
Продолжительность : 1 ч. 23 м.
Вид битрейта : Постоянный
Битрейт : 384 Кбит/сек
Каналы : 6 каналов
Расположение каналов : Front: L C R, Side: L R, LFE
Частота : 48,0 КГц
Частота кадров : 31,250 кадров/сек (1536 spf)
Битовая глубина : 32 бит
Метод сжатия : С потерями
Размер потока : 230 Мбайт (14%)
Заголовок : iTunes
Язык : Russian
Default : Да
Forced : Нет

Меню
00:00:00.000 : :Глава 1
00:07:00.291 : :Глава 2
00:12:13.499 : :Глава 3
00:18:38.499 : :Глава 4
00:26:23.665 : :Глава 5
00:32:10.665 : :Глава 6
00:39:42.373 : :Глава 7
00:44:49.331 : :Глава 8
00:50:51.706 : :Глава 9
00:56:25.456 : :Глава 10
01:00:54.372 : :Глава 11
01:05:58.122 : :Глава 12
01:13:15.955 : :Глава 13

pb.wtf



Скачать Счастья! Здоровья! через торрент http://pic1.kartinco.top/images/11/zgjhd.jpg Скачать фильм Счастья! Здоровья! через торрент бесплантно в хорошем качестве Описание: Три влюблённые пары — татарская, армянская и русская — готовятся сыграть свадьбы. Но выясняется, что для Рината и Гузельки ... 9.9 10 12
Торрент: Зарегистрирован [2018-10-19 08:06] · скачан: 507 раз
Статус: √ проверено
Размер: 1.63 GB
Как cкачать? Как скачать Счастья! Здоровья! через торрент | qTorrent

% Раздел Тема Автор DL S | L
Наши новые фильмы 2018-2019 [ 1.37 GB ] Счастья! Здоровья! [2018 WEB-DLRip] bober100 Скачать
2 | 0
Наши новые фильмы 2018-2019 [ 698 MB ] Счастья! Здоровья! [2018 WEB-DLRip] Sherif Скачать
1 | 0
Наши фильмы (HD, WEB-DL 720p, 1080p) [ 2.58 GB ] Счастья! Здоровья! [2018 WEB-DL 720p] bober100 Скачать
2 | 0
Наши фильмы (HD, WEB-DL 720p, 1080p) [ 2.95 GB ] Счастья! Здоровья! [2018 WEB-DL 1080p] bober100 Скачать
1 | 0


>> Регистрируемся здесь <<






Отзывы и комментарии о схеме читаем и пишем здесь: ---> Отзывы и комментарии о схеме

Новые благодарочки в телеграм довольных пользователей:
скриншот   скриншот   скриншот   скриншот   скриншот

19-10-2018 09:10 Счастья! Здоровья! Скачать торрент  

Топик был перенесен из форума Оформление раздач (Кино, Видео и ТВ) в форум Наши новые фильмы 2018


bober100pb.wtf



    Дорогой пользователь! Огромная просьба, поблагодарите релизера, оцените раздачу и оставьте свои комментарий, если Вы скачали Счастья! Здоровья! через торрент бесплатно! Внесите свою лепту в развитие PiratBit!
    Комментировать посты могут только пользователи прошедшие не сложную регистрацию
    Показать сообщения:    

    Счастья! Здоровья! через торрент
    Скачать бесплатно Счастья! Здоровья!
    Счастья! Здоровья! скачать торрент
    Счастья! Здоровья! смотреть онлайн
    Cкачать фильм Счастья! Здоровья! бесплатно
    Счастья! Здоровья! скачать торрент в хорошем качестве
    Счастья! Здоровья! смотреть онлайн бесплатно в хорошем качестве


    Вы не можете начинать темы
    Вы не можете отвечать на сообщения
    Вы не можете редактировать свои сообщения
    Вы не можете удалять свои сообщения
    Вы не можете голосовать в опросах
    Вы не можете прикреплять файлы к сообщениям
    Вы можете скачивать файлы