Ссылка на приватное зеркало нашего сайта всего за 1$. Внимание количество ограничено!!!

2 сезон

iTunes

1 сезон

1

iTunes

iTunes

iTunes

1 сезон

RePack

30

ИГРА 18+

pack

ВАЖНО

!!Акция!!

Alien_RageХит недели

RePack

MK11
pack

Забери бонус

RePack

jed

!!Акция!!

Alien_Rage

RePack

fifa19

RePack

Assassins Creed: Odyssey

RePack

NEED FOR SPEED™ PAYBACK

4 сезон

9 сезон

Бесстыжие 9 сезон

Все сериалы

все сериалы на PB.wtf

RePack

FAR CRY 5
  

Ласточка / Сезон: 1 / Серии: 1-16 из 16 (Денис Карро) [2018, детектив, HDTVRip] pb.wtf

Ласточка через торрент pb.wtf

Размер: 9.74 GB | Добавлен: 2 года назад | Торрент скачан:183 раза
Скачать  

19-10-2018 08:22 Ласточка Скачать торрент  

Ласточка Год выпуска: 2018
Страна: Россия
Жанр: детектив
Продолжительность: ~ 00:47:00
Субтитры: отсутствуют

Режиссер: Денис Карро



В ролях:

Екатерина Редникова, Илья Носков, Ольга Фадеева, Елена Цыплакова, Михаил Химичев, Александр Дуденков, Пётр Баранчеев, Наталья Рыжих, Данил Акутин, Дарья Ленда, Наталья Рычкова, Софья Озерова, Константин Белошапка, Виктор Кондрашов, Николай Ковбас, Наталья Земцова, Анастасия Добрынина, Елена Кибалова

Описание:

Отсидев в тюрьме за убийство подруги, которого не совершала, потеряв в тюрьме ребенка и лишившись матери, она возвращается в родной поселок, чтобы найти настоящего убийцу и отомстить… Нет больше Ласточки – юной и наивной Аси Волковой (Екатерина Редникова), невинно осужденной 15 лет назад. Годы колонии превратили ее в Алину Воронову – холодную, одержимую местью женщину. Теперь у нее есть деньги, связи и моральное право уничтожить всех, кто сломал ей жизнь. Алина готова калечить жизни и рушить судьбы своих врагов! Ведь ее предали самые близкие люди – те, кого она любила и кого считала друзьями… Алина начинает собственное расследование. Ей помогают подруга Зара Савина (Ольга Фадеева) и журналист Павел Самохин (Илья Носков). Вскоре они приходят к поразительным выводам, которые меняют все. С каждым новым шагом план отмщения рассыпается, пробуждаются забытые чувства, а жажда расплаты остывает. Но жестокое колесо мести уже запущено и его жернова перемалывают всех – виновных, невиновных и… ее саму…

Качество: HDTVRip
Формат: AVI

Видео: XviD, ~ 1679 Кбит/с, 720x400
Аудио: AC3, 2 ch, 192 Кбит/с
скриншот  скриншот  скриншот  скриншот  

Общее
Полное имя : D:\Ласточка.2018.HDTVRip.Files-x\01.Ласточка.2018.HDTVRip.Files-x.avi
Формат : AVI
Формат/Информация : Audio Video Interleave
Размер файла : 598 Мбайт
Продолжительность : 44 м. 26 с.
Общий поток : 1881 Кбит/сек
Программа кодирования : VirtualDubMod 1.5.10.3 | www.virtualdub-fr.org || (build 2550/release)
Библиотека кодирования : VirtualDubMod build 2550/release

Видео
Идентификатор : 0
Формат : MPEG-4 Visual
Профиль формата : Advanced Simple@L5
Параметр BVOP формата : 1
Параметр QPel формата : Нет
Параметр GMC формата : Без точки перехода
Параметр матрицы формата : Выборочная
Идентификатор кодека : XVID
Идентификатор кодека/Подсказка : XviD
Продолжительность : 44 м. 26 с.
Битрейт : 1679 Кбит/сек
Ширина : 720 пикселей
Высота : 400 пикселей
Соотношение сторон : 16:9
Частота кадров : 25,000 кадров/сек
Цветовое пространство : YUV
Субдискретизация насыщенности : 4:2:0
Битовая глубина : 8 бит
Тип развёртки : Прогрессивная
Метод сжатия : С потерями
Бит/(Пиксели*Кадры) : 0.233
Размер потока : 534 Мбайт (89%)
Библиотека кодирования : XviD 73

Аудио
Идентификатор : 1
Формат : AC-3
Формат/Информация : Audio Coding 3
Расширение режима : CM (complete main)
Параметр Endianness формата : Big
Идентификатор кодека : 2000
Продолжительность : 44 м. 26 с.
Вид битрейта : Постоянный
Битрейт : 192 Кбит/сек
Каналы : 2 канала
Расположение каналов : Front: L R
Частота : 48,0 КГц
Частота кадров : 31,250 кадров/сек (1536 spf)
Метод сжатия : С потерями
Размер потока : 61,0 Мбайт (10%)
Выравнивание : Разделение по промежуткам
Продолжительность промежутка : 40 мс. (1,00 видеокадр)
Время предзагрузки промежутка : 500 мс.

Когда раздача ведётся путём добавления новых серий, при каждом добавлении создётся новый торрент. Чтобы начать докачку новой серии, пользователям необходимо сделать следующее:
(1) остановить скачивание,
(2) удалить старый торрент у себя из клиента (старые серии удалять не надо),
(3) скачать новый торрент и запустить его у себя в клиенте вместо старого, при этом указать клиенту путь в старую папку, куда и должно происходить скачивание новых серий.
Ваш клиент при этом должен произвести хеширование (проверку) старой папки (если не производит сам - помогите ему сделать это), и будет докачивать только те серии, которых у вас ещё нет. Старые серии при этом не удаляются, а продолжают раздаваться!
Eсли вы уже удалили старые серии, то предотвратить повторную закачку старых серий можно, отжав галочку в соответсвующих местах при запуске нового торрента. По возможности, желательно не удалять старые серии как можно дольше, чтобы релизёр не столько продолжал раздавать старые серии, а смог сконцентрироваться на новых.
pb.wtf



Скачать Ласточка через торрент http://img10.lostpic.net/2018/10/15/b656d60033eaf4883e1d7193fea71454.jpg Скачать фильм Ласточка через торрент бесплантно в хорошем качестве Описание: Отсидев в тюрьме за убийство подруги, которого не совершала, потеряв в тюрьме ребенка и лишившись матери, она возвращается в ... 10 10 7
Торрент: Зарегистрирован [2018-10-20 17:43] · скачан: 183 раз
Статус: √ проверено
Размер: 9.74 GB
Как cкачать? Как скачать Ласточка через торрент | qTorrent

% Раздел Тема Автор DL S | L
Наши сериалы [ 11.27 GB ] Ласточка / Сезон: 1 / Серии: 1-16 из 16 [2018 HDTVRip-AVC] bober100 Скачать
1 | 0
Наши сериалы [ 11.12 GB ] Ласточка / Сезон: 1 / Серии: 1-16 из 16 [2018 WEBRip 720p] sokol_ok Скачать
3 | 1
Наши сериалы [ 21.57 GB ] Ласточка / Сезон: 1 / Серии: 1-16 из 16 [2018 HDTVRip 720p] bober100 Скачать
1 | 0
Наши сериалы [ 37.3 GB ] Ласточка / Сезон: 1 / Серии: [2018 HDTV 1080p] [Русский] R.G.Generalfilm White Smoke Скачать
1 | 0

28-11-2019 20:33  

Отключить всю рекламу на сайте

21-10-2018 14:36 Ласточка Скачать торрент  

Огромное спасибо за раздачу фильма..Стоит посмотреть.Отличный спокойный фильм....Игра актёров на уровне ...та к что кто любитель сериалов внимание затягивает и сразу все серии смотряться как надоpb.wtf



    Дорогой пользователь! Огромная просьба, поблагодарите релизера, оцените раздачу и оставьте свои комментарий, если Вы скачали Ласточка через торрент бесплатно! Внесите свою лепту в развитие PiratBit!
    Комментировать посты могут только пользователи прошедшие не сложную регистрацию
    Показать сообщения:    

    Ласточка через торрент
    Скачать бесплатно Ласточка
    Ласточка скачать торрент
    Ласточка смотреть онлайн
    Cкачать фильм Ласточка бесплатно
    Ласточка скачать торрент в хорошем качестве
    Ласточка смотреть онлайн бесплатно в хорошем качестве


    Вы не можете начинать темы
    Вы не можете отвечать на сообщения
    Вы не можете редактировать свои сообщения
    Вы не можете удалять свои сообщения
    Вы не можете голосовать в опросах
    Вы не можете прикреплять файлы к сообщениям
    Вы можете скачивать файлы