Ссылка на приватное зеркало всего за 1$. Внимание количество ограничено!!!

OK

1+1

iTunes

мы

OK

1

WEB-DLRip

Джокер

Пифагор

Ведьмак / The Witcher сериал

iTunes

ПШазам

ОК

Оно 2

iTunes

30
pack

Вам бонус

ВАЖНО

!!Акция!!

Alien_RageХит недели

RePack

Resident Evil 21

ИГРА 18+

pack

RePack

jed

RePack

fifa19

RePack

Assassins Creed: Odyssey

RePack

NEED FOR SPEED™ PAYBACK

4 сезон

9 сезон

Бесстыжие 9 сезон

Все сериалы

все сериалы на PB.wtf

RePack

FAR CRY 5
  

Охота на теней / Hunting for Shadows (Даво Харди) [2016, Ужасы, триллер, приключения, WEB-DL 720p] MVO [КОЛОБОК] pb.wtf

Охота на теней через торрент pb.wtf

Размер: 3.15 GB | Добавлен: 1 год 3 мес. назад | Торрент скачан:49 раз
Скачать  

19-10-2018 09:44 Охота на теней Скачать торрент  

Охота на теней / Hunting for ShadowsГод выпуска: 2016
Страна: США
Жанр: Ужасы, триллер, приключения
Продолжительность: 01:17:06
Перевод: Любительский (многоголосый) | КОЛОБОК
Субтитры: отсутствуют

Режиссер: Даво Харди

rating

В ролях:

Сейдж Амезист Мачет, Сеййдж Годрей, Пол Меркурио, Трейси Батенбург, Анник Рикенбах, Сана Шаик, Тим Мейсон Скотт, Сэлли Уильямс

Описание:

Дикая Австралия полна легенд и сказаний, восходящих к доисторическим временам, и с одной из таких легенд предстоит встретиться маленькой девочке, которой чудом удаётся пережить бойню устроенную куинкинами - озорными, но смертельными злыми духами.

Качество: WEB-DL 720p
Формат: MKV

Видео: h.264, 5 469 Кбит/с, 1280x536
Аудио: Русский, (AC3, 2 ch, 384 Кбит/с)
скриншот  скриншот  скриншот  

Общее
Уникальный идентификатор : 206324344449477670237467990182695883540 (0x9B389F921AD0D0988B123EABF9495314)
Полное имя : D:\Hunting for Shadows.2O16.Pk.WEB-DL.72Op.mkv
Формат : Matroska
Версия формата : Version 2
Размер файла : 3,15 Гбайт
Продолжительность : 1 ч. 17 м.
Режим общего битрейта : Переменный
Общий поток : 5855 Кбит/сек
Дата кодирования : UTC 2018-10-18 17:00:00
Программа кодирования : mkvmerge v8.3.0 ('Over the Horizon') 64bit
Библиотека кодирования : libebml v1.3.1 + libmatroska v1.4.2

Видео
Идентификатор : 1
Формат : AVC
Формат/Информация : Advanced Video Codec
Профиль формата : High@L4.1
Параметр CABAC формата : Да
Параметр RefFrames формата : 4 кадра
Идентификатор кодека : V_MPEG4/ISO/AVC
Продолжительность : 1 ч. 17 м.
Вид битрейта : Переменный
Битрейт : 5469 Кбит/сек
Максимальный битрейт : 6000 Кбит/сек
Ширина : 1280 пикселей
Высота : 536 пикселей
Соотношение сторон : 2,40:1
Режим частоты кадров : Постоянный
Частота кадров : 23,976 (24000/1001) кадра/сек
Стандарт вещания : Component
Цветовое пространство : YUV
Субдискретизация насыщенности : 4:2:0
Битовая глубина : 8 бит
Тип развёртки : Прогрессивная
Бит/(Пиксели*Кадры) : 0.325
Размер потока : 2,88 Гбайт (91%)
Default : Да
Forced : Нет
Цветовой диапазон : Limited
Основные цвета : BT.709
Характеристики трансфера : BT.709
Коэффициенты матрицы : BT.709

Аудио
Идентификатор : 2
Формат : AC-3
Формат/Информация : Audio Coding 3
Расширение режима : CM (complete main)
Параметр Endianness формата : Big
Идентификатор кодека : A_AC3
Продолжительность : 1 ч. 17 м.
Вид битрейта : Постоянный
Битрейт : 384 Кбит/сек
Каналы : 2 канала
Расположение каналов : Front: L R
Частота : 48,0 КГц
Частота кадров : 31,250 кадров/сек (1536 spf)
Метод сжатия : С потерями
Размер потока : 212 Мбайт (7%)
Default : Да
Forced : Нет

pb.wtf



Скачать Охота на теней через торрент http://img10.lostpic.net/2018/10/19/08182e60bea3d62c75a31bdffd968f53.jpg Скачать фильм Охота на теней через торрент бесплантно в хорошем качестве Описание: Дикая Австралия полна легенд и сказаний, восходящих к доисторическим временам, и с одной из таких легенд предстоит встретиться ... 10 10 3
Торрент: Зарегистрирован [2018-10-19 09:44] · скачан: 49 раз
Статус: T временная
Размер: 3.15 GB
Как cкачать? Как скачать Охота на теней через торрент | qTorrent

% Раздел Тема Автор DL S | L
T Фильмы (мультфильмы) cо спонсором показа (Новинки AVI/MKV) [ 1.37 GB ] Охота на теней / Hunting for Shadows [2016 WEB-DLRip] MVO [КОЛОБОК] bober100 Скачать
1 | 0

28-11-2019 20:33  

Отключить всю рекламу на сайте

    Дорогой пользователь! Огромная просьба, поблагодарите релизера, оцените раздачу и оставьте свои комментарий, если Вы скачали Охота на теней через торрент бесплатно! Внесите свою лепту в развитие PiratBit!
    Комментировать посты могут только пользователи прошедшие не сложную регистрацию
    Показать сообщения:    

    Охота на теней через торрент
    Скачать бесплатно Охота на теней
    Охота на теней скачать торрент
    Охота на теней смотреть онлайн
    Cкачать фильм Охота на теней бесплатно
    Охота на теней скачать торрент в хорошем качестве
    Охота на теней смотреть онлайн бесплатно в хорошем качестве


    Вы не можете начинать темы
    Вы не можете отвечать на сообщения
    Вы не можете редактировать свои сообщения
    Вы не можете удалять свои сообщения
    Вы не можете голосовать в опросах
    Вы не можете прикреплять файлы к сообщениям
    Вы можете скачивать файлы