Всегда рабочее зеркало без VPN и Proxy просто перед .vidak.icu напиши любое слово или цифру, Пример http://9a36.vidak.icu

MVO

MVO

1 сезон

1

1 сезон

iTunes

1 сезон

13

1 сезон

Deluxe

pack

Рекомендуем

Repack

30

ВАЖНО

RePack

MK11

RePack

jed

RePack

fifa19

RePack

RDR2

RePack

NEED FOR SPEED™ PAYBACK

Кинопоиск HD

6 сезон

 Острые козырьки 6 сезон

Все сериалы

все сериалы на PB.wtf

RePack

FAR CRY 5
  
Magnet ссылка

Мальчишник в Вегасе / The Hangover (Тодд Филлипс) [2009, комедия, UHD WEBRip 2160p] [Театральная версия] DUB (rus, ukr) [Лицензия] pb.wtf

Мальчишник в Вегасе через торрент pb.wtf

Размер: 20.68 GB | Добавлен: 3 года 9 мес. назад | Торрент скачан:96 раз
Смотреть онлайн Мальчишник в Вегасе | Скачать    Ребята, помогите собрать деньги на оплату серверов!!!

19-10-2018 10:00 Мальчишник в Вегасе Скачать торрент  

Мальчишник в Вегасе / The Hangover Год выпуска: 2009
Страна: США
Жанр: комедия
Продолжительность: 01:39:44
Перевод: Дублированный | Лицензия
Субтитры: Русские (Форсированные, полные), английские (Full)

Режиссер: Тодд Филлипс

rating

В ролях:

Брэдли Купер, Эд Хелмс, Зак Галифианакис, Джастин Барта, Хизер Грэм, Джеффри Тэмбор, Саша Баррези, Кен Жонг, Рэйчел Харрис, Майк Эппс

Описание:

Они мечтали устроить незабываемый мальчишник в Вегасе. Но теперь им действительно необходимо вспомнить, что именно происходило! Чей ребенок сидит в шкафу шикарного номера отеля? Как в ванную попал тигр? Почему у одного из них нет зуба? И, самое главное, куда делся жених?!
То, что парни вытворяли на вечеринке, не идет ни в какое сравнение с тем, что им придется сделать на трезвую голову, когда они будут шаг за шагом восстанавливать события прошлой ночи, каждый раз — новая зацепка.

Качество: UHD WEBRip 2160p | Театральная версия
Формат: MKV

Видео: HEVC HDR, 26.3 Mбит/с, 3840x1600, 23.976 кадр/с
Аудио#1: Русский (AC3, 6 ch, 640 Кбит/с) / Дублированный (BD CEE)
Аудио#2: Украинский (AC3, 6 ch, 640 Кбит/с) / Дублированный (BD CEE)
Аудио#3: Английский (TrueHD, 6 ch, 1375 Кбит/с)
Аудио#4: Английский (AC3, 6 ch, 640 Кбит/с)
скриншот  скриншот  скриншот  скриншот  скриншот  

General
Unique ID : 194489973481630595025542351044291905145 (0x9251680898154DDE2EF6829FDF38C679)
Complete name : C:UsersPublicVideosSample VideosFilmyThe.Hangover.2009.2160p.HDR.WEBRip.MediaClub.mkv
Format : Matroska
Format version : Version 4
File size : 20.7 GiB
Duration : 1 h 39 min
Overall bit rate mode : Variable
Overall bit rate : 29.7 Mb/s
Encoded date : UTC 2018-10-19 08:53:26
Writing application : mkvmerge v25.0.0 ('Prog Noir') 64-bit
Writing library : libebml v1.3.6 + libmatroska v1.4.9
Cover : Yes
Attachments : cover.jpg

Video
ID : 1
Format : HEVC
Format/Info : High Efficiency Video Coding
Commercial name : HDR10
Format profile : Main [email protected]@High
Codec ID : V_MPEGH/ISO/HEVC
Duration : 1 h 39 min
Bit rate : 26.3 Mb/s
Width : 3 840 pixels
Height : 1 600 pixels
Display aspect ratio : 2.40:1
Frame rate mode : Constant
Frame rate : 23.976 (24000/1001) FPS
Color space : YUV
Chroma subsampling : 4:2:0 (Type 2)
Bit depth : 10 bits
Bits/(Pixel*Frame) : 0.179
Stream size : 18.3 GiB (89%)
Title : WEBRip.2160p.HDR by Silverok
Writing library : x265 2.9+2-7e978ed93d60:[Windows][MSVC 1915][64 bit] 10bit
Encoding settings : cpuid=1111039 / frame-threads=4 / numa-pools=28 / wpp / no-pmode / no-pme / no-psnr / no-ssim / log-level=2 / input-csp=1 / input-res=3840x1600 / interlace=0 / total-frames=143442 / level-idc=51 / high-tier=1 / uhd-bd=0 / ref=4 / no-allow-non-conformance / repeat-headers / annexb / aud / hrd / info / hash=0 / no-temporal-layers / no-open-gop / min-keyint=24 / keyint=240 / gop-lookahead=0 / bframes=4 / b-adapt=2 / b-pyramid / bframe-bias=0 / rc-lookahead=25 / lookahead-slices=4 / scenecut=40 / radl=0 / no-intra-refresh / ctu=64 / min-cu-size=8 / rect / no-amp / max-tu-size=32 / tu-inter-depth=1 / tu-intra-depth=1 / limit-tu=0 / rdoq-level=2 / dynamic-rd=0.00 / no-ssim-rd / signhide / no-tskip / nr-intra=0 / nr-inter=0 / no-constrained-intra / no-strong-intra-smoothing / max-merge=3 / limit-refs=3 / limit-modes / me=3 / subme=3 / merange=57 / temporal-mvp / weightp / no-weightb / no-analyze-src-pics / deblock=3:3 / no-sao / no-sao-non-deblock / rd=4 / no-early-skip / rskip / no-fast-intra / no-tskip-fast / no-cu-lossless / no-b-intra / no-splitrd-skip / rdpenalty=0 / psy-rd=2.00 / psy-rdoq=1.00 / no-rd-refine / no-lossless / cbqpoffs=0 / crqpoffs=0 / rc=crf / crf=13.0 / qcomp=0.70 / qpstep=4 / stats-write=0 / stats-read=0 / vbv-maxrate=160000 / vbv-bufsize=160000 / vbv-init=0.9 / crf-max=0.0 / crf-min=0.0 / ipratio=1.40 / pbratio=1.30 / aq-mode=1 / aq-strength=1.00 / cutree / zone-count=0 / no-strict-cbr / qg-size=32 / no-rc-grain / qpmax=69 / qpmin=0 / no-const-vbv / sar=1 / overscan=0 / videoformat=5 / range=0 / colorprim=9 / transfer=16 / colormatrix=9 / chromaloc=1 / chromaloc-top=2 / chromaloc-bottom=2 / display-window=0 / master-display=G(8500,39850)B(6550,2300)R(35400,14600)WP(15635,16450)L(39990000,50) / max-cll=4000,1000 / min-luma=0 / max-luma=1023 / log2-max-poc-lsb=8 / vui-timing-info / vui-hrd-info / slices=1 / no-opt-qp-pps / no-opt-ref-list-length-pps / no-multi-pass-opt-rps / scenecut-bias=0.05 / no-opt-cu-delta-qp / no-aq-motion / hdr / hdr-opt / no-dhdr10-opt / no-idr-recovery-sei / analysis-reuse-level=5 / scale-factor=0 / refine-intra=0 / refine-inter=0 / refine-mv=0 / no-limit-sao / ctu-info=0 / no-lowpass-dct / refine-mv-type=0 / copy-pic=1 / max-ausize-factor=1.0 / no-dynamic-refine / no-single-sei
Default : Yes
Forced : No
Color range : Limited
Color primaries : BT.2020
Transfer characteristics : PQ
Matrix coefficients : BT.2020 non-constant
Mastering display color primaries : BT.2020
Mastering display luminance : min: 0.0050 cd/m2, max: 3999 cd/m2
Maximum Content Light Level : 4000 cd/m2
Maximum Frame-Average Light Level : 1000 cd/m2

Audio #1
ID : 2
Format : AC-3
Format/Info : Audio Coding 3
Commercial name : Dolby Digital
Codec ID : A_AC3
Duration : 1 h 39 min
Bit rate mode : Constant
Bit rate : 640 kb/s
Channel(s) : 6 channels
Channel layout : L R C LFE Ls Rs
Sampling rate : 48.0 kHz
Frame rate : 31.250 FPS (1536 SPF)
Bit depth : 16 bits
Compression mode : Lossy
Stream size : 457 MiB (2%)
Title : Дублированный (BD CEE)
Language : Russian
Service kind : Complete Main
Default : Yes
Forced : No

Audio #2
ID : 3
Format : AC-3
Format/Info : Audio Coding 3
Commercial name : Dolby Digital
Codec ID : A_AC3
Duration : 1 h 39 min
Bit rate mode : Constant
Bit rate : 640 kb/s
Channel(s) : 6 channels
Channel layout : L R C LFE Ls Rs
Sampling rate : 48.0 kHz
Frame rate : 31.250 FPS (1536 SPF)
Bit depth : 16 bits
Compression mode : Lossy
Stream size : 457 MiB (2%)
Title : Дублированный (BD CEE)
Language : Ukrainian
Service kind : Complete Main
Default : No
Forced : No

Audio #3
ID : 4
Format : MLP FBA
Format/Info : Meridian Lossless Packing FBA
Commercial name : Dolby TrueHD
Codec ID : A_TRUEHD
Duration : 1 h 39 min
Bit rate mode : Variable
Bit rate : 1 375 kb/s
Maximum bit rate : 2 601 kb/s
Channel(s) : 6 channels
Channel layout : L R C LFE Ls Rs
Sampling rate : 48.0 kHz
Frame rate : 1 200.000 FPS (40 SPF)
Compression mode : Lossless
Stream size : 981 MiB (5%)
Language : English
Default : No
Forced : No

Audio #4
ID : 8
Format : AC-3
Format/Info : Audio Coding 3
Commercial name : Dolby Digital
Codec ID : A_AC3
Duration : 1 h 39 min
Bit rate mode : Constant
Bit rate : 640 kb/s
Channel(s) : 6 channels
Channel layout : L R C LFE Ls Rs
Sampling rate : 48.0 kHz
Frame rate : 31.250 FPS (1536 SPF)
Bit depth : 16 bits
Compression mode : Lossy
Stream size : 457 MiB (2%)
Language : English
Service kind : Complete Main
Default : No
Forced : No

Text #1
ID : 5
Format : UTF-8
Codec ID : S_TEXT/UTF8
Codec ID/Info : UTF-8 Plain Text
Duration : 1 h 25 min
Bit rate : 0 b/s
Count of elements : 9
Stream size : 276 Bytes (0%)
Title : Forced
Language : Russian
Default : Yes
Forced : No

Text #2
ID : 6
Format : UTF-8
Codec ID : S_TEXT/UTF8
Codec ID/Info : UTF-8 Plain Text
Duration : 1 h 35 min
Bit rate : 122 b/s
Count of elements : 1504
Stream size : 85.6 KiB (0%)
Title : Full
Language : Russian
Default : No
Forced : No

Text #3
ID : 7
Format : UTF-8
Codec ID : S_TEXT/UTF8
Codec ID/Info : UTF-8 Plain Text
Duration : 1 h 35 min
Bit rate : 85 b/s
Count of elements : 1551
Stream size : 59.4 KiB (0%)
Title : Full
Language : English
Default : No
Forced : No
pb.wtf



Скачать Мальчишник в Вегасе через торрент http://img10.lostpic.net/2018/10/19/88c650f14406f821a41b62bbbb664813.jpg Скачать, смотреть онлайн Мальчишник в Вегасе бесплантно в хорошем качестве Описание: Они мечтали устроить незабываемый мальчишник в Вегасе. Но теперь им действительно необходимо вспомнить, что именно происходило! ... 9.6 10 7
Info! Золотая раздача, скачанное не засчитывается.
Торрент: Зарегистрирован [2018-10-19 10:00] · скачан: 96 раз
Статус: √ проверено
Размер: 20.68 GB
Как cкачать? Как скачать Мальчишник в Вегасе через торрент | UTorrent

% Раздел Тема Автор DL S | L
Фильмы [HD 720p, 1080p] (Хороший звук DUB, MVO) [ 7.36 GB ] Мальчишник в Вегасе / The Hangover [2009 BDRip 1080p] [UNRATED] + [MVO] + [AVO] killermax2013 Скачать
4 | 1
Фильмы (Blu-ray, BD-Remux, HDDVD) [ 12.4 GB ] Мальчишник в Вегасе / The Hangover [2009 BD-Remux + Оригинал] Бумер Скачать
1 | 0
Фильмы [HD 720p, 1080p] (Хороший звук DUB, MVO) [ 9.93 GB ] Мальчишник 2: Из Вегаса в Бангкок / The Hangover Part II [2011 BDRip-HEVC 1080p ] DUB [] +AVO [Алексей Матвеев] bober100 Скачать
2 | 0
Ultra HD (UHD: 2K, 4K, 8K) — видео сверхвысокой чёткости [ 22.12 GB ] Мальчишник 2: Из Вегаса в Бангкок / The Hangover Part II [2011 UHD WEBRip 2160p] AVO+DUB bober100 Скачать
1 | 0
Фильмы [HD 720p, 1080p] (Хороший звук DUB, MVO) [ 6.66 GB ] Мальчишник 2: Из Вегаса в Бангкок / The Hangover Part II [2011 BDRip 720p] diletant Скачать
1 | 0
Фильмы с авторской озвучкой [ 1.45 GB ] Похмелье 2 / Мальчишник 2: Из Вегаса в Бангкок / The Hangover Part II [2011 HDRip] [AVO] killermax2013 Скачать
1 | 0
Фильмы с авторской озвучкой [ 1.46 GB ] Мальчишник в Вегасе / The Hangover [2009 HDRip] [UNRATED] [AVO] killermax2013 Скачать
1 | 0

28-11-2019 20:33  

Отключить вcю реклaмy на сайте

    Дорогой пользователь! Огромная просьба, поблагодарите релизера, оцените раздачу и оставьте свои комментарий, если Вы скачали Мальчишник в Вегасе через торрент бесплатно!
    Комментировать посты могут только пользователи прошедшие не сложную регистрацию
    Показать сообщения:    

    Мальчишник в Вегасе через торрент
    Скачать бесплатно Мальчишник в Вегасе
    Мальчишник в Вегасе скачать торрент
    Мальчишник в Вегасе смотреть онлайн
    Cкачать фильм Мальчишник в Вегасе бесплатно
    Мальчишник в Вегасе скачать торрент в хорошем качестве
    Мальчишник в Вегасе смотреть онлайн бесплатно в хорошем качестве


    Вы не можете начинать темы
    Вы не можете отвечать на сообщения
    Вы не можете редактировать свои сообщения
    Вы не можете удалять свои сообщения
    Вы не можете голосовать в опросах
    Вы не можете прикреплять файлы к сообщениям
    Вы можете скачивать файлы