новый адрес
Ссылка на приватное зеркало всего за 1$. Внимание количество ограничено!!!

iTunes

1+1

iTunes

мы

WEB-DL

1

iTunes

Чернобыль

iTunes

Ральф против интернета

Лицензия

ПШазам

Лицензия

Оно 2

Лицензия

30
pack

Вам бонус

ВАЖНО

!!Акция!!

Alien_RageХит недели

RePack

Resident Evil 21

ИГРА 18+

pack

RePack

jed

!!Акция!!

Alien_Rage

RePack

fifa19

RePack

Assassins Creed: Odyssey

RePack

NEED FOR SPEED™ PAYBACK

3 сезон

9 сезон

Бесстыжие 9 сезон

Все сериалы

все сериалы на PB.wtf

RePack

FAR CRY 5
Ребята, катастрофически не хватает 1900р. для оплаты серверов за Октябрь (всвязи с блокировками трафик упал в 3 раза), 1-2р., выручайте.
  

Кажется, мы остались одни / I Think We're Alone Now (Майк Маковски) [2018 г., Фантастика, Драма, Детектив, BDRip, Любительский (многоголосый)][MuzOboz] pb.wtf

Кажется, мы остались одни через торрент pb.wtf

Раздают: 1 [ 0 KB/s ]
Размер: 1.46 GB | Добавлен: 1 год 1 мес. назад | Торрент скачан:154 раза
Скачать  

19-10-2018 10:37 Кажется, мы остались одни Скачать торрент  

Кажется мы остались одни / I Think We're Alone Now
Год выпуска: 2018
Страна: США
Жанр: Фантастика, Драма, Детектив
Продолжительность: 01:39:00
Перевод: Любительский (многоголосый)[MuzOboz]
Субтитры: Русские форсированные (отдельно)

Режиссер: Майк Маковски

Премьера в мире: 21 января 2018

rating

В ролях: Питер Динклэйдж, Элль Фэннинг, Шарлотта Генсбур, Пол Джаматти

Описание: Заветная мечта Дела становится реальностью, когда человечество загадочно исчезает с лица земли. Одиночество и порядок в его новом идеальном мире нарушает чудом уцелевшая девушка Грейс.

Качество: BDRip
Формат: AVI
Видео кодек: XviD
Аудио кодек: AC3
Видео: XviD 1651 Кбит/сек,720x304, в 23,976 кадров/сек
Аудио#1: AC3 448 Кбит/сек,48,0 КГц, 6 канала


скриншот   скриншот   скриншот   скриншот  





Общее
Полное имя : D:\Фильмы с PIRATBIT\I.Think.We.are.Alone.Now.2018.BDRip.1.46Gb.L.MegaPeer\I.Think.We.are.Alone.Now.2018.BDRip.1.46Gb.L.MegaPeer.avi
Формат : AVI
Формат/Информация : Audio Video Interleave
Размер файла : 1,46 Гбайт
Продолжительность : 1 ч. 39 м.
Общий поток : 2109 Кбит/сек
Программа кодирования : VirtualDubMod 1.5.10.3 | www.virtualdub-fr.org || (build 2550/release)
Библиотека кодирования : VirtualDubMod build 2550/release

Видео
Идентификатор : 0
Формат : MPEG-4 Visual
Профиль формата : Advanced Simple@L5
Параметр BVOP формата : 1
Параметр QPel формата : Нет
Параметр GMC формата : Без точки перехода
Параметр матрицы формата : Выборочная
Идентификатор кодека : XVID
Идентификатор кодека/Подсказка : XviD
Продолжительность : 1 ч. 39 м.
Битрейт : 1651 Кбит/сек
Ширина : 720 пикселей
Высота : 304 пикселя
Соотношение сторон : 2,35:1
Частота кадров : 23,976 (24000/1001) кадра/сек
Цветовое пространство : YUV
Субдискретизация насыщенности : 4:2:0
Битовая глубина : 8 бит
Тип развёртки : Прогрессивная
Метод сжатия : С потерями
Бит/(Пиксели*Кадры) : 0.315
Размер потока : 1,14 Гбайт (78%)
Библиотека кодирования : XviD 73

Аудио
Идентификатор : 1
Формат : AC-3
Формат/Информация : Audio Coding 3
Расширение режима : CM (complete main)
Параметр Endianness формата : Big
Идентификатор кодека : 2000
Продолжительность : 1 ч. 39 м.
Вид битрейта : Постоянный
Битрейт : 448 Кбит/сек
Каналы : 6 каналов
Расположение каналов : Front: L C R, Side: L R, LFE
Частота : 48,0 КГц
Частота кадров : 31,250 кадров/сек (1536 spf)
Метод сжатия : С потерями
Размер потока : 318 Мбайт (21%)
Выравнивание : Разделение по промежуткам
Продолжительность промежутка : 42 мс. (1,00 видеокадр)
Время предзагрузки промежутка : 500 мс.

pb.wtf



Скачать Кажется, мы остались одни через торрент http://pic1.kartinco.top/images/11/jj33n.jpg Скачать фильм Кажется, мы остались одни через торрент бесплантно в хорошем качестве Описание: Заветная мечта Дела становится реальностью, когда человечество загадочно исчезает с лица земли. Одиночество и порядок в его новом ... 10 10 7
Торрент: Зарегистрирован [2018-10-19 10:37] · скачан: 154 раз
Статус: T временная
Размер: 1.46 GB
Как cкачать? Как скачать Кажется, мы остались одни через торрент | qTorrent



Последний раз редактировалось: Sanekzade1989 (2018-10-19 14:39), всего редактировалось 9 раз(а)

28-11-2019 20:33  

Отключить всю рекламу на сайте

19-10-2018 14:20 Кажется, мы остались одни Скачать торрент  

Sanekzade1989,
1. Добавьте, пожалуйста, сэмпл. Для любительских переводов наличие сэмпла обязательно.

Правила оформления раздач в разделе «Фильмов» пункт 13.

Как изготовить минутный видео сэмпл

2. В описании фильмов с любительскими переводами необходимо указывать, есть реклама или нет. Подробнее по ссылке: Реклама в новых релизах Кино?
pb.wtf



20-10-2018 07:35 Кажется, мы остались одни Скачать торрент  

Трейлер хорош!!!!

Тупо весь фильм.
Продолжительность трейлера 1час 39 мин.
Зачем качать?pb.wtf



    Дорогой пользователь! Огромная просьба, поблагодарите релизера, оцените раздачу и оставьте свои комментарий, если Вы скачали Кажется, мы остались одни через торрент бесплатно! Внесите свою лепту в развитие PiratBit!
    Комментировать посты могут только пользователи прошедшие не сложную регистрацию
    Показать сообщения:    

    Кажется, мы остались одни через торрент
    Скачать бесплатно Кажется, мы остались одни
    Кажется, мы остались одни скачать торрент
    Кажется, мы остались одни смотреть онлайн
    Cкачать фильм Кажется, мы остались одни бесплатно
    Кажется, мы остались одни скачать торрент в хорошем качестве
    Кажется, мы остались одни смотреть онлайн бесплатно в хорошем качестве


    Вы не можете начинать темы
    Вы не можете отвечать на сообщения
    Вы не можете редактировать свои сообщения
    Вы не можете удалять свои сообщения
    Вы не можете голосовать в опросах
    Вы не можете прикреплять файлы к сообщениям
    Вы можете скачивать файлы