Ссылка на приватное зеркало нашего сайта всего за 1$. Внимание количество ограничено!!!

2 сезон

iTunes

1 сезон

1

2 сезон

2 сезон

iTunes

1 сезон

RePack

30

Новинка

ВАЖНО

ИГРА 18+

pack

RePack

MK11
pack

Забери бонус

RePack

jed

!!Акция!!

Alien_Rage

RePack

fifa19

RePack

Assassins Creed: Odyssey

RePack

NEED FOR SPEED™ PAYBACK

4 сезон

9 сезон

Бесстыжие 9 сезон

Все сериалы

все сериалы на PB.wtf

RePack

FAR CRY 5
  

Зло / Malicious (Майкл Уинник) [2018, ужасы, триллер, WEB-DL 1080p] DUB [iTunes] pb.wtf

Зло через торрент pb.wtf

Размер: 3.23 GB | Добавлен: 2 года 1 мес. назад | Торрент скачан:1602 раза
Скачать  

19-10-2018 12:13 Зло Скачать торрент  

Зло / Malicious
««Его время пришло»»

Год выпуска: 2018
Страна: США
Жанр: ужасы, триллер
Продолжительность: 01:27:09
Перевод: Дублированный [iTunes]
Субтитры: Отсутствуют
Режиссер: Майкл Уинник
В ролях:

Бояна Новакович (Lisa), Джош Стюарт (Adam), Делрой Линдо (Dr. Clark), Мелисса Болона (Becky), Ивет Йейтс (Emily Harper), Жаклин Флеминг (Dr. Lee), Бэйли МиКелл Копертуэйт (Young Woman), Люк Эдвардс (James Harper), Джой Кейт Лосон (Teen-Age Doll Girl), Прэсли Ричардсон (Little Doll Girl), Джо-Энн Робинсон (Old Woman), Бен ВандерМей (David)
Описание:
Молодой преподаватель Адам и его жена Лиза ожидают пополнения в семействе. В один миг идиллия счастливой пары рушится. Они сталкиваются с неведомым злом, которое превращает их жизнь в ад.
Рейтинг:
rating
Качество: WEB-DL 1080p
Формат: MKV
Видео: AVC, 1920x804 (2.40:1), 4539 kbps, 25 fps, 0,118 bpp
Аудио №1: русский / AC3 / 5.1 / 48 kHz / 384 kbps / |Дубляж|
Аудио №2: английский / AC3 / 5.1 / 48 kHz / 384 kbps /
Навигация по главам: есть
General
Уникальный идентификатор : 178300051711161446558704929455234080722 (0x8623574319E3091E8E8D1D08DAA7DFD2)
Полное имя : F:TorrentZlo2018WEB-DL1080p.mkv
Формат : Matroska
Версия формата : Version 4 / Version 2
Размер файла : 3.23 GiB
Продолжительность : 1 h 27 min
Общий поток : 5 309 kb/s
Дата кодирования : UTC 2018-10-19 11:10:24
Программа кодирования : mkvmerge v9.5.0 ('Quiet Fire') 64bit
Библиотека кодирования : libebml v1.3.4 + libmatroska v1.4.5

Video
Идентификатор : 1
Формат : AVC
Формат/Информация : Advanced Video Codec
Профиль формата : High@L4
Настройки формата : CABAC / 5 Ref Frames
Параметр CABAC формата : Yes
Параметр RefFrames формата : 5 frames
Идентификатор кодека : V_MPEG4/ISO/AVC
Продолжительность : 1 h 27 min
Битрейт : 4 539 kb/s
Ширина : 1 920 pixels
Высота : 804 pixels
Соотношение сторон : 2.40:1
Режим частоты кадров : Constant
Частота кадров : 25.000 FPS
Цветовое пространство : YUV
Субдискретизация насыщенности : 4:2:0
Битовая глубина : 8 bits
Тип развёртки : Progressive
Бит/(Пиксели*Кадры) : 0.118
Размер потока : 2.76 GiB (85%)
Язык : English
Default : Yes
Forced : No
Цветовой диапазон : Limited
Основные цвета : BT.709
Характеристики трансфера : BT.709
Коэффициенты матрицы : BT.709

Audio #1
Идентификатор : 2
Формат : AC-3
Формат/Информация : Audio Coding 3
Идентификатор кодека : A_AC3
Продолжительность : 1 h 27 min
Вид битрейта : Constant
Битрейт : 384 kb/s
Каналы : 6 channels
Расположение каналов : Front: L C R, Side: L R, LFE
Частота : 48.0 kHz
Частота кадров : 31.250 FPS (1536 SPF)
Битовая глубина : 16 bits
Метод сжатия : Lossy
Размер потока : 239 MiB (7%)
Язык : Russian
Default : Yes
Forced : No

Audio #2
Идентификатор : 3
Формат : AC-3
Формат/Информация : Audio Coding 3
Идентификатор кодека : A_AC3
Продолжительность : 1 h 27 min
Вид битрейта : Constant
Битрейт : 384 kb/s
Каналы : 6 channels
Расположение каналов : Front: L C R, Side: L R, LFE
Частота : 48.0 kHz
Частота кадров : 31.250 FPS (1536 SPF)
Битовая глубина : 16 bits
Метод сжатия : Lossy
Размер потока : 239 MiB (7%)
Язык : English
Default : No
Forced : No

Menu
00:00:00.000 : en:Глава 1
00:07:42.720 : en:Глава 2
00:15:03.880 : en:Глава 3
00:22:09.880 : en:Глава 4
00:29:23.560 : en:Глава 5
00:36:51.360 : en:Глава 6
00:44:03.960 : en:Глава 7
00:51:30.600 : en:Глава 8
00:59:02.680 : en:Глава 9
01:06:19.680 : en:Глава 10
01:14:26.760 : en:Глава 11
01:21:36.960 : en:Глава 12
скриншот   скриншот   скриншот   скриншот  
pb.wtf



Скачать Зло через торрент http://i78.fastpic.ru/big/2018/1019/0f/cd374f52a0a123339157ded61e1fe50f.png Скачать фильм Зло через торрент бесплантно в хорошем качестве Описание: Молодой преподаватель Адам и его жена Лиза ожидают пополнения в семействе. В один миг идиллия счастливой пары рушится. Они ... 9.6 10 37
Info! Золотая раздача, скачанное не засчитывается.
Торрент: Зарегистрирован [2018-10-19 12:13] · скачан: 1 602 раз
Статус: √ проверено
Размер: 3.23 GB
Как cкачать? Как скачать Зло через торрент | qTorrent

% Раздел Тема Автор DL S | L
Фильмы 2018 [DVDrip, WEB-DLRip, HDrip] (DUB, MVO) [ 1.44 GB ] Зло / Malicious [2018 WEB-DLRip] bober100 Скачать
1 | 0
Фильмы 2018 [DVDrip, WEB-DLRip, HDrip] (DUB, MVO) [ 1.64 GB ] Зло / Malicious [2018 WEB-DLRip-AVC] bober100 Скачать
3 | 1
Фильмы 2018 [DVDrip, WEB-DLRip, HDrip] (DUB, MVO) [ 745 MB ] Зло / Malicious [2018 WEB-DLRip] bober100 Скачать
1 | 0

28-11-2019 20:33  

Отключить всю рекламу на сайте

19-10-2018 15:34 Зло Скачать торрент  

Фильм стоящий к просмотру рекомендую, оценка 5 из 5, автору спс.pb.wtf
K-Lexx- писал(а):

Приятного просмотра.



19-10-2018 16:36 Зло Скачать торрент  

fanta86 писал(а):

Фильм стоящий к просмотру рекомендую, оценка 5 из 5, автору спс.

Заценим.pb.wtf



20-10-2018 14:01 Зло Скачать торрент  

Суперский фильм!pb.wtf



21-10-2018 20:42 Зло Скачать торрент  

Спасибо!pb.wtf



22-10-2018 06:24 Зло Скачать торрент  

Шляпа полная 🤮pb.wtf



22-10-2018 07:20 Зло Скачать торрент  

неплохой фильмpb.wtf



22-10-2018 09:16 Зло Скачать торрент  

нормальный фильм, 6-7 баллов из 10. вполне логичный (для этого жанра конечно же) сюжет, есть скриммеры, тревожная музычка где надо, даже сиськэ показали немножко))pb.wtf



24-10-2018 12:08 Зло Скачать торрент  

Заснул на сороковой минуте) обычный америкосовский шляпак!pb.wtf



    Дорогой пользователь! Огромная просьба, поблагодарите релизера, оцените раздачу и оставьте свои комментарий, если Вы скачали Зло через торрент бесплатно! Внесите свою лепту в развитие PiratBit!
    Комментировать посты могут только пользователи прошедшие не сложную регистрацию
    Показать сообщения:    

    Зло через торрент
    Скачать бесплатно Зло
    Зло скачать торрент
    Зло смотреть онлайн
    Cкачать фильм Зло бесплатно
    Зло скачать торрент в хорошем качестве
    Зло смотреть онлайн бесплатно в хорошем качестве


    Вы не можете начинать темы
    Вы не можете отвечать на сообщения
    Вы не можете редактировать свои сообщения
    Вы не можете удалять свои сообщения
    Вы не можете голосовать в опросах
    Вы не можете прикреплять файлы к сообщениям
    Вы можете скачивать файлы